<?xml version="1.0" standalone="no"?>
<!DOCTYPE svg PUBLIC "-//W3C//DTD SVG 1.1//EN" "http://www.w3.org/Graphics/SVG/1.1/DTD/svg11.dtd" >
<svg xmlns="http://www.w3.org/2000/svg">
<metadata>
This is a custom SVG webfont generated by Font Squirrel.
Designer    : Georg Seifert
Foundry     : Georg Seifert
Foundry URL : wwwfontsinfo
</metadata>
<defs>
<font id="webfontFXVLmXkT" horiz-adv-x="2236" >
<font-face units-per-em="4096" ascent="3277" descent="-819" />
<missing-glyph horiz-adv-x="1028" />
<glyph unicode=" "  horiz-adv-x="1028" />
<glyph unicode="&#x09;" horiz-adv-x="1028" />
<glyph unicode="&#xa0;" horiz-adv-x="1028" />
<glyph unicode="!" horiz-adv-x="1220" d="M1094 3043l-41 -2007h-656l-37 2007h734zM1147 352q0 -168 -117 -289q-116 -120 -276 -120q-170 0 -287 120q-119 122 -119 289q0 160 117 279t289 119q164 0 278 -119q115 -120 115 -279z" />
<glyph unicode="&#x22;" horiz-adv-x="1650" d="M737 3035l-86 -770h-528l-82 770v488h696v-488zM1610 3035l-82 -770h-533l-73 770v488h688v-488z" />
<glyph unicode="#" horiz-adv-x="2572" d="M2421 512h-307v-913h-652v913h-332v-913h-647v913h-340v561h336v524h-336v562h340v909h647v-909h320v909h659v-909h320v-557h-320v-529h312v-561zM1450 1073v529h-320v-529h320z" />
<glyph unicode="$" horiz-adv-x="2043" d="M1876 2941l-176 -553q-271 131 -512 131q-132 0 -215 -55q-84 -56 -84 -158q0 -112 104 -229q109 -123 256 -238q145 -114 301 -260q149 -140 254 -346q105 -205 105 -442q0 -348 -215 -555q-216 -209 -572 -261l-4 -561h-540l49 561q-338 33 -545 115l188 639 q340 -192 615 -192q132 0 207 59t75 162q0 115 -104 237q-104 121 -252 244q-163 135 -295 260q-147 139 -252 336q-104 195 -104 422q0 336 205 547t532 268l16 463h529l-41 -459q241 -40 475 -135z" />
<glyph unicode="%" horiz-adv-x="2805" d="M2626 2372l-2024 -2089l-348 401l2015 2089zM1413 2372q0 -280 -196 -476t-467 -196q-279 0 -451 190t-172 482q0 287 180 479t475 192t463 -180t168 -491zM897 2372q0 200 -131 200q-123 0 -123 -200q0 -205 123 -205q131 0 131 205zM2716 623q0 -286 -185 -482 q-184 -194 -467 -194q-278 0 -458 192q-181 193 -181 484q0 282 181 475q180 192 475 192t465 -180q170 -181 170 -487zM2200 623q0 85 -35 143q-35 57 -97 57q-126 0 -126 -200q0 -209 126 -209q132 0 132 209z" />
<glyph unicode="&#x26;" horiz-adv-x="2465" d="M2105 2351q0 -241 -153 -438q-152 -195 -424 -402l1020 -999l-443 -545l-344 336q-365 -344 -823 -344q-414 0 -627 219t-213 580q0 479 443 823q-172 286 -172 623q0 392 221 618q220 225 639 225q398 0 637 -190t239 -506zM1024 483q131 0 332 209l-402 393 q-172 -159 -172 -294q0 -114 74 -211t168 -97zM1044 2273q0 -134 103 -299q258 180 258 344q0 95 -55 146q-56 51 -125 51q-77 0 -129 -70t-52 -172z" />
<glyph unicode="'" horiz-adv-x="774" d="M737 3035l-86 -770h-528l-82 770v488h696v-488z" />
<glyph unicode="(" horiz-adv-x="1396" d="M1405 -557l-483 -283q-742 939 -742 2265q0 688 201 1198q202 512 553 1035l467 -279q-4 -8 -13.5 -29l-30 -65.5l-38.5 -83.5l-119 -256q-47 -101 -121 -303q-69 -187 -116 -369q-45 -174 -78 -395q-33 -224 -33 -436q0 -1025 553 -1999z" />
<glyph unicode=")" horiz-adv-x="1400" d="M1225 1425q0 -357 -62 -690q-62 -331 -184 -622q-125 -297 -234 -496q-116 -212 -274 -461l-479 279q128 254 207 428q75 166 168 430q92 262 137 536q45 276 45 580q0 141 -10 268q-11 133 -21 234t-39 225l-43 195q-15 71 -61 196l-62 172q-18 55 -75 178 q-63 136 -76 160q-11 20 -86 176q-69 144 -84 170l500 275q234 -341 370 -596q138 -260 250 -690q113 -435 113 -947z" />
<glyph unicode="*" horiz-adv-x="2142" d="M1434 2290l-127 -701l503 332l218 -664l-639 -135l491 -520l-565 -414l-250 598l-213 -610l-573 410l454 532l-610 94l213 668l495 -295l-151 705h754z" />
<glyph unicode="+" horiz-adv-x="2142" d="M1950 881h-566v-811h-630v811h-566v557h566v753h630v-753h566v-557z" />
<glyph unicode="," horiz-adv-x="1187" d="M512 -840l-389 348q258 282 258 463q0 74 -86 189t-86 246q0 159 113 260q112 100 280 100q217 0 336 -160t119 -418q0 -491 -545 -1028z" />
<glyph unicode="-" horiz-adv-x="1536" d="M1413 1032h-1290v561h1290v-561z" />
<glyph unicode="." horiz-adv-x="1196" d="M1016 352q0 -168 -117 -289q-116 -120 -276 -120q-170 0 -287 120q-119 122 -119 289q0 160 117 279t289 119q164 0 278 -119q115 -120 115 -279z" />
<glyph unicode="/" horiz-adv-x="1708" d="M1753 3211l-1053 -3731l-639 209l1057 3731z" />
<glyph unicode="0" horiz-adv-x="2256" d="M2142 1393q0 -214 -31 -422q-30 -202 -106 -391q-78 -193 -193 -328q-118 -138 -296 -221q-180 -84 -410 -84q-282 0 -485 123q-204 124 -310 331t-151 437q-45 228 -45 485q0 276 53 518q52 238 170 451q117 211 330 334q211 122 503 122q227 0 400 -79 q172 -79 280 -211q106 -130 174 -314q70 -190 93 -362q24 -180 24 -389zM1442 1327q0 860 -324 860q-295 0 -295 -823q0 -852 320 -852q299 0 299 815z" />
<glyph unicode="1" horiz-adv-x="1540" d="M1319 0h-701v1884l-401 -237l-225 499l790 582h537v-2728z" />
<glyph unicode="2" horiz-adv-x="1839" d="M1683 0h-1585v426q342 363 613 770q276 414 276 700q0 295 -303 295q-217 0 -463 -123l-139 517q351 163 721 163q443 0 659 -206q217 -207 217 -564q0 -192 -63 -397q-61 -200 -178 -401q-109 -189 -205 -324q-97 -137 -217 -287h667v-569z" />
<glyph unicode="3" horiz-adv-x="1822" d="M1597 2036q0 -405 -344 -635q215 -74 328 -268q115 -197 115 -457q0 -515 -367 -813q-366 -297 -936 -297q-183 0 -262 20v570q151 -17 221 -17q257 0 432 140q174 139 174 380q0 350 -423 350q-27 0 -56 -1l-172 -4l-16 499l160 13q186 21 303 126q118 106 118 271 q0 131 -73 203q-72 71 -189 71q-161 0 -389 -82l-143 537q291 111 639 111q401 0 641 -183q239 -182 239 -534z" />
<glyph unicode="4" horiz-adv-x="1925" d="M578 2810h651l-496 -1680h307l119 701h496v-701h241v-561h-241v-569h-647v569h-856l-148 443z" />
<glyph unicode="5" horiz-adv-x="1765" d="M848 2195l-33 -540q21 4 66 4q339 0 575 -240q236 -241 236 -682q0 -553 -369 -858q-370 -305 -967 -305q-112 0 -204 16v578q69 -12 163 -12q292 0 467 157q176 158 176 437q0 409 -438 409q-153 0 -352 -49l94 1593h1364v-508h-778z" />
<glyph unicode="6" horiz-adv-x="2306" d="M1913 2494q-112 11 -210 11q-304 0 -482 -105q-238 -140 -316 -569q163 90 398 90q381 0 606 -250q225 -251 225 -713q0 -463 -285 -739t-706 -276q-505 0 -746 368t-241 951q0 406 75 718q77 320 244 572q168 253 467 393q297 139 709 139q132 0 254 -8zM1126 1393 q-98 0 -262 -90v-37q0 -754 299 -754q115 0 176 121q62 122 62 317q0 443 -275 443z" />
<glyph unicode="7" horiz-adv-x="1654" d="M852 2138h-848v565h1569l61 -385l-835 -2658h-733z" />
<glyph unicode="8" horiz-adv-x="2166" d="M168 762q0 420 373 807q-332 296 -332 700q0 395 250 615q251 221 639 221q369 0 610 -205q242 -206 242 -565q0 -361 -324 -733q373 -283 373 -771q0 -438 -262 -663q-263 -225 -664 -225q-385 0 -645 215t-260 604zM1327 778q0 140 -82 244q-83 105 -233 211 q-164 -238 -164 -430q0 -148 67 -230q66 -81 170 -81q96 0 168 75q74 77 74 211zM889 2331q0 -250 258 -430q135 201 135 389q0 110 -57 198t-144 88t-139 -63q-53 -64 -53 -182z" />
<glyph unicode="9" horiz-adv-x="2306" d="M377 209q116 -13 218 -13q294 0 470 105q237 141 315 571q-164 -90 -393 -90q-381 0 -606 250t-225 713t286 739q288 277 705 277q503 0 745 -369q242 -370 242 -950q0 -403 -76 -719q-77 -321 -243 -571q-169 -255 -467 -394q-297 -139 -709 -139q-132 0 -254 8z M1163 1311q105 0 262 86v41q0 753 -299 753q-115 0 -176 -120q-61 -121 -61 -318q0 -442 274 -442z" />
<glyph unicode=":" horiz-adv-x="1175" d="M1024 352q0 -168 -117 -289q-116 -120 -276 -120q-170 0 -287 120q-119 122 -119 289q0 160 117 279t289 119q164 0 278 -119q115 -120 115 -279zM1024 1901q0 -167 -117 -289q-117 -121 -276 -121q-169 0 -287 121q-119 122 -119 289q0 159 117 278t289 119 q164 0 278 -119q115 -120 115 -278z" />
<glyph unicode=";" horiz-adv-x="1175" d="M520 -840l-389 348q258 282 258 463q0 74 -86 189t-86 246q0 159 113 260q112 100 280 100q217 0 336 -160t119 -418q0 -491 -545 -1028zM1020 1901q0 -167 -117 -289q-117 -121 -276 -121q-169 0 -287 121q-119 122 -119 289q0 159 117 278t289 119q164 0 278 -119 q115 -120 115 -278z" />
<glyph unicode="&#x3c;" horiz-adv-x="1667" d="M1307 2482l381 -401l-885 -905l864 -885l-352 -438l-1372 1323z" />
<glyph unicode="=" horiz-adv-x="2142" d="M1950 1356h-1762v561h1762v-561zM1950 422h-1762v561h1762v-561z" />
<glyph unicode="&#x3e;" horiz-adv-x="2142" d="M586 2482l1351 -1306l-1368 -1323l-344 438l852 885l-876 905z" />
<glyph unicode="?" horiz-adv-x="1753" d="M524 995v250q0 220 74 404q72 179 160 278q89 100 160 213q73 116 73 223q0 172 -184 172q-130 0 -410 -176l-217 484q412 245 783 245q390 0 563 -188q174 -189 174 -479q0 -195 -76 -363q-77 -170 -166 -274q-90 -105 -166 -260q-75 -153 -75 -324v-205h-693zM1274 352 q0 -168 -117 -289q-116 -120 -276 -120q-169 0 -289 120q-121 121 -121 289q0 160 119 279t291 119q164 0 278 -119q115 -120 115 -279z" />
<glyph unicode="@" horiz-adv-x="3751" d="M1671 -49q-213 0 -362 145t-209 350q-60 206 -60 443q0 567 265 903q264 334 673 334q341 0 684 -250v-1192q0 -225 119 -225q205 0 205 766q0 593 -264 958t-764 365q-520 0 -858 -394t-338 -1114q0 -675 293 -1097t837 -422q380 0 770 143l152 -504 q-453 -151 -963 -151q-824 0 -1273 542q-451 544 -451 1465q0 930 508 1489t1294 559q729 0 1215 -477q485 -476 485 -1276q0 -243 -53 -473q-52 -224 -164 -432q-112 -207 -315 -330q-206 -125 -480 -125q-119 0 -198 18t-127 72q-45 51 -62 78q-8 14 -51 102 q-217 -270 -508 -270zM2032 586v1024q-31 20 -82 20q-254 0 -254 -655q0 -512 180 -512q99 0 156 123z" />
<glyph unicode="A" horiz-adv-x="2547" d="M1782 0l-201 721h-680l-201 -721h-700l831 3043h836l877 -3043h-762zM1233 2540l-221 -1266h454z" />
<glyph unicode="B" horiz-adv-x="2306" d="M2224 913q0 -267 -88 -452q-89 -188 -256 -283q-170 -97 -358 -137q-193 -41 -441 -41h-831v3043h860q574 0 801 -217t227 -594q0 -372 -258 -581q344 -242 344 -738zM1483 946q0 381 -361 381h-176v-778h184q173 0 263 92q90 91 90 305zM1405 2187q0 303 -303 303h-156 v-659h144q315 0 315 356z" />
<glyph unicode="C" horiz-adv-x="2035" d="M1933 614l70 -577q-303 -90 -606 -90q-1285 0 -1286 1540q0 271 39 500q39 231 133 438q95 210 241 356q148 148 375 236t522 88q245 0 578 -86l-90 -570q-258 78 -475 78q-307 0 -451 -235q-143 -234 -143 -731q0 -1041 598 -1041q259 0 495 94z" />
<glyph unicode="D" horiz-adv-x="2596" d="M2486 1540q0 -725 -329 -1132q-330 -408 -1018 -408h-897v3043h938q1306 0 1306 -1503zM1774 1511q0 517 -150 742t-522 225h-164v-1913h233q314 0 459 226q144 225 144 720z" />
<glyph unicode="E" horiz-adv-x="2125" d="M2011 0h-1769v3043h1712v-565h-1016v-635h917v-561h-917v-717h1073v-565z" />
<glyph unicode="F" horiz-adv-x="1839" d="M1880 2478h-942v-807h872v-561h-872v-1110h-696v3043h1638v-565z" />
<glyph unicode="G" horiz-adv-x="2502" d="M2347 1446v-1229q-430 -274 -971 -274q-643 0 -946 397q-303 398 -303 1098q0 758 336 1212q336 455 1032 455q327 0 803 -156l-139 -569q-363 151 -672 151q-332 0 -479 -256q-148 -258 -148 -764q0 -995 549 -995q146 0 266 70v860h672z" />
<glyph unicode="H" horiz-adv-x="2732" d="M2482 0h-704v1298h-824v-1298h-704v3043h704v-1188h824v1188h704v-3043z" />
<glyph unicode="I" horiz-adv-x="1204" d="M954 0h-704v3043h704v-3043z" />
<glyph unicode="J" horiz-adv-x="1474" d="M1253 3043v-1806q0 -237 -36 -416q-37 -183 -89 -315t-151 -232t-189 -163q-91 -63 -239 -113q-153 -52 -256 -78q-79 -20 -289 -63l-94 598q354 90 500 241q147 152 147 553v1794h696z" />
<glyph unicode="K" horiz-adv-x="2539" d="M2544 3043l-910 -1298l971 -1745h-897l-528 1196l-238 -324v-872h-700v3043h700v-1253l692 1253h910z" />
<glyph unicode="L" horiz-adv-x="1998" d="M1962 0h-1720v3043h696v-2453h1024v-590z" />
<glyph unicode="M" horiz-adv-x="3260" d="M3117 0h-704l-86 1692l-578 -1692h-328l-594 1692l-73 -1692h-611l201 3043h619l663 -1835l660 1835h614z" />
<glyph unicode="N" horiz-adv-x="2744" d="M2507 0h-516l-1082 1692v-1692h-667v3043h516l1081 -1654v1654h668v-3043z" />
<glyph unicode="O" horiz-adv-x="2691" d="M2572 1569q0 -250 -35 -477t-124 -439q-90 -214 -230 -368q-141 -154 -364 -248q-224 -94 -516 -94q-1183 0 -1184 1540q0 247 39 467t131 436q92 215 231 371q139 155 361 252q221 96 495 96q333 0 572 -127t372 -350q133 -222 193 -486q59 -258 59 -573zM1847 1536 q0 496 -108 750t-400 254q-193 0 -307 -140t-153 -354t-39 -543q0 -497 116 -747q117 -252 392 -252q499 0 499 1032z" />
<glyph unicode="P" horiz-adv-x="2277" d="M2195 2044q0 -484 -262 -762t-733 -278q-156 0 -262 24v-1028h-705v3043h897q504 0 785 -254q280 -253 280 -745zM1462 1995q0 245 -92 364t-313 119h-119v-893q58 -29 143 -29q213 0 297 107t84 332z" />
<glyph unicode="Q" horiz-adv-x="2695" d="M2572 1569q0 -1054 -569 -1434l448 -170q329 -126 486 -178l393 -125q259 -80 442 -108q188 -29 361 -29q187 0 495 33l-65 -521q-307 -28 -496 -28q-153 0 -290 14q-153 16 -322 55l-307 72q-130 29 -342 107l-322 114q-108 37 -356 140l-336 139l-365 157l-346 152 q-962 130 -962 1524q0 247 39 467t131 436q92 215 231 371q139 155 361 252q221 96 495 96q333 0 572 -127t372 -350q133 -222 193 -486q59 -258 59 -573zM1847 1536q0 496 -108 750t-400 254q-193 0 -307 -140t-153 -354t-39 -543q0 -497 116 -747q117 -252 392 -252 q499 0 499 1032z" />
<glyph unicode="R" horiz-adv-x="2338" d="M242 3043h856q533 0 796 -223q265 -224 265 -690q0 -602 -410 -844l516 -1286h-819l-324 1118q-55 -4 -184 -4v-1114h-696v3043zM938 2478v-819h25q240 0 348 84q114 89 114 334q0 209 -79 307q-76 94 -226 94h-14h-168z" />
<glyph unicode="S" horiz-adv-x="1961" d="M1794 2953l-152 -565q-315 135 -536 135q-295 0 -295 -221q0 -118 113 -231q117 -117 270 -222q163 -112 317 -241q162 -136 273 -346q112 -212 112 -476q0 -418 -290 -626q-292 -209 -725 -209q-458 0 -836 164l172 630q385 -213 647 -213q130 0 211 64q80 63 80 174 q0 106 -80 209q-79 102 -198 186q-122 86 -259 197q-136 110 -258 227q-118 114 -198 293q-80 180 -80 387q0 401 285 619q284 217 702 217q322 0 725 -152z" />
<glyph unicode="T" horiz-adv-x="2076" d="M2130 2478h-754v-2478h-692v2478h-737v565h2183v-565z" />
<glyph unicode="U" horiz-adv-x="2613" d="M2380 3043v-2052q0 -466 -277 -758q-275 -290 -833 -290q-551 0 -793 284q-244 286 -244 756v2060h693v-1921q0 -294 78 -438q77 -143 315 -143q122 0 201 41q77 40 112 129t45 176q11 93 11 235v1921h692z" />
<glyph unicode="V" horiz-adv-x="2506" d="M2556 3043l-1073 -3043h-455l-1077 3043h762l565 -1962l549 1962h729z" />
<glyph unicode="W" horiz-adv-x="3366" d="M3355 3043l-529 -3043h-557l-594 1827l-581 -1827h-557l-529 3043h729l234 -1781l483 1781h512l500 -1781l229 1781h660z" />
<glyph unicode="X" horiz-adv-x="2482" d="M1655 0l-434 987l-439 -987h-770l758 1556l-729 1487h852l393 -909l377 909h774l-741 -1437l811 -1606h-852z" />
<glyph unicode="Y" horiz-adv-x="2273" d="M2380 3043l-885 -2027v-1016h-696v979l-901 2064h774l487 -1339l500 1339h721z" />
<glyph unicode="Z" horiz-adv-x="2064" d="M2015 0h-1859l-103 467l1061 1978h-1012v598h1815l111 -430l-1078 -2015h1065v-598z" />
<glyph unicode="[" horiz-adv-x="1241" d="M1200 -614h-1089v4272h1089v-512h-512v-3248h512v-512z" />
<glyph unicode="\" horiz-adv-x="1294" d="M823 -524l-1056 3735l655 213l1061 -3735z" />
<glyph unicode="]" horiz-adv-x="1236" d="M1130 -614h-1089v512h504v3248h-504v512h1089v-4272z" />
<glyph unicode="^" horiz-adv-x="2179" d="M2318 1143h-729l-508 1241l-487 -1241h-729l971 2089h516z" />
<glyph unicode="_" horiz-adv-x="1789" d="M1888 -516h-1978v463h1978v-463z" />
<glyph unicode="`" horiz-adv-x="454" d="M-303 3166l557 303l426 -794l-418 -181z" />
<glyph unicode="a" horiz-adv-x="1933" d="M1790 0h-557l-57 221q-8 -9 -58 -43l-65 -47q-21 -15 -64 -43q-50 -32 -74 -43q-16 -7 -73 -35q-46 -22 -86 -30q-83 -16 -90 -17q-54 -8 -101 -8q-234 0 -352 182q-119 184 -119 453q0 615 950 688v274q0 226 -221 226q-187 0 -512 -131l-135 499q435 152 778 152 q430 0 602 -201q173 -202 173 -545v-823q0 -262 61 -729zM1049 532v373q-113 -12 -175 -24t-120 -62t-58 -135q0 -113 47 -180q47 -66 121 -66q72 0 185 94z" />
<glyph unicode="b" horiz-adv-x="2203" d="M2105 1217q0 -581 -243 -928q-243 -346 -764 -346q-495 0 -889 254v3133h696v-1147q186 115 459 115q741 0 741 -1081zM1384 1159q0 315 -51 443q-51 127 -194 127q-149 0 -234 -82v-1078q83 -57 185 -57q159 0 227 164q67 162 67 483z" />
<glyph unicode="c" horiz-adv-x="1667" d="M1507 606l123 -508q-256 -143 -647 -143q-881 0 -881 1139q0 623 252 905t731 282q295 0 533 -86l-119 -553q-185 99 -364 99q-156 0 -240 -127q-84 -128 -84 -451q0 -328 88 -497q89 -170 252 -170q145 0 356 110z" />
<glyph unicode="d" horiz-adv-x="2207" d="M2003 3330v-3236q-576 -151 -918 -151q-979 0 -979 1142q0 558 240 885q241 328 727 328q107 0 234 -12v1044h696zM1307 524v1164q-91 41 -185 41q-163 0 -229 -148q-66 -147 -66 -451q0 -638 275 -638q78 0 205 32z" />
<glyph unicode="e" horiz-adv-x="1880" d="M1774 971h-1053q29 -282 119 -391q91 -109 274 -109q176 0 504 152l151 -496q-375 -184 -741 -184q-499 0 -706 313q-207 314 -207 862q0 1180 872 1180q431 0 623 -270t192 -701q0 -191 -28 -356zM938 1835q-111 0 -166 -106t-63 -349h467v33q0 199 -48 307 q-51 115 -190 115z" />
<glyph unicode="f" horiz-adv-x="1343" d="M1733 3293l-131 -491q-167 73 -373 73q-152 0 -203 -84t-51 -301v-249h409v-504h-409v-1737h-696v1737h-234v504h234v249q0 472 196 686q197 215 639 215q326 0 619 -98z" />
<glyph unicode="g" horiz-adv-x="1863" d="M893 2298q142 0 295 -41q99 147 162 229q61 79 161 166q101 87 218 129l241 -467q-303 -90 -438 -295q151 -205 151 -520q0 -397 -215 -586q-213 -188 -567 -188h-65q-17 -51 -17 -115q0 -74 78 -131q79 -58 195 -92q118 -35 254 -96q140 -63 253 -137q117 -76 195 -224 q78 -147 78 -344q0 -208 -84 -360t-227 -225q-146 -75 -299 -107q-156 -33 -336 -33q-873 0 -873 631q0 145 64 293q62 144 119 213q56 68 145 166q-98 122 -98 319q0 194 127 373q-271 197 -271 651q0 409 203 600t551 191zM1241 -471q0 70 -24 121q-23 49 -95 96t-106 66 q-33 18 -154 65l-145 57q-115 -203 -115 -303q0 -155 90 -237q89 -82 226 -82q323 0 323 217zM1135 1503q0 336 -230 336q-217 0 -217 -323q0 -336 225 -336q222 0 222 323z" />
<glyph unicode="h" d="M2040 0h-697v1438q0 245 -151 245q-128 0 -283 -143v-1540h-696v3334h696l-37 -1266q138 92 320 160q187 70 319 70q241 0 385 -176t144 -557v-1565z" />
<glyph unicode="i" horiz-adv-x="1130" d="M918 0h-701v2241h701v-2241zM954 2957q0 -159 -114 -272q-115 -113 -279 -113q-163 0 -274 113t-111 272q0 160 113 275q113 114 272 114q161 0 277 -116t116 -273z" />
<glyph unicode="j" horiz-adv-x="1130" d="M217 2241h701v-2061q0 -613 -222 -885q-221 -271 -864 -401l-139 565q211 61 311 117q99 56 156 184q57 129 57 367v2114zM946 2957q0 -159 -115 -272t-278 -113t-274 113t-111 272q0 160 113 275q113 114 272 114q160 0 276 -116q117 -117 117 -273z" />
<glyph unicode="k" horiz-adv-x="2134" d="M2167 2241l-742 -975l758 -1266h-815l-360 721l-136 -176v-545h-663v3330h696v-1442l-33 -491l471 844h824z" />
<glyph unicode="l" horiz-adv-x="1130" d="M918 0h-705v3330h705v-3330z" />
<glyph unicode="m" horiz-adv-x="3354" d="M2028 0h-697v1458q0 126 -33 176q-33 49 -110 49q-128 0 -283 -143v-1540h-696v2241h614l37 -201q369 258 647 258q340 0 451 -262q371 262 676 262q261 0 391 -154q129 -153 129 -534v-1610h-696v1462q0 122 -35 172q-34 49 -113 49q-114 0 -282 -147v-1536z" />
<glyph unicode="n" d="M2036 0h-697v1458q0 124 -34 174q-35 51 -113 51q-132 0 -287 -143v-1540h-696v2241h614l37 -201q369 258 651 258q263 0 394 -154t131 -534v-1610z" />
<glyph unicode="o" horiz-adv-x="2142" d="M106 1102q0 552 238 874t754 322q938 0 938 -1143q0 -557 -242 -885q-242 -327 -741 -327q-487 0 -717 309q-230 310 -230 850zM807 1147q0 -355 65 -510q66 -158 205 -158q258 0 258 651q0 330 -61 482q-62 153 -201 153q-140 0 -203 -141t-63 -477z" />
<glyph unicode="p" horiz-adv-x="2207" d="M205 -1085v3235q579 152 917 152q979 0 979 -1143q0 -559 -239 -885q-240 -327 -727 -327q-111 0 -234 12v-1044h-696zM901 1720v-1163q91 -41 184 -41q164 0 230 148q65 145 65 450q0 639 -274 639q-74 0 -205 -33z" />
<glyph unicode="q" horiz-adv-x="2207" d="M106 1028q0 580 244 928q243 346 764 346q495 0 889 -254v-3133h-696v1146q-185 -114 -459 -114q-742 0 -742 1081zM827 1085q0 -312 52 -442q51 -127 194 -127q149 0 234 82v1077q-84 58 -185 58q-159 0 -227 -164q-68 -165 -68 -484z" />
<glyph unicode="r" horiz-adv-x="1667" d="M1622 2269l-33 -627q-49 8 -95 8q-378 0 -601 -503v-1147h-680v2241h680v-345q169 235 330 320q118 62 274 62q60 0 125 -9z" />
<glyph unicode="s" horiz-adv-x="1630" d="M909 2306q287 0 582 -90l-107 -533q-214 95 -397 95q-156 0 -156 -131q0 -83 74 -152q74 -70 182 -137q109 -68 216 -154t180 -235t73 -346q0 -344 -215 -512t-563 -168q-362 0 -704 118l147 557q279 -147 463 -147q160 0 160 135q0 65 -53 127q-51 60 -136 111t-174 121 q-98 77 -174 149q-83 78 -135 205q-53 129 -53 283q0 336 225 520q224 184 565 184z" />
<glyph unicode="t" horiz-adv-x="1421" d="M1335 586l90 -574q-210 -65 -483 -65q-377 0 -536 166q-160 168 -160 542v1082h-217v504h217v688l696 163v-851h406v-504h-406v-975q0 -217 160 -217q75 0 233 41z" />
<glyph unicode="u" d="M205 2241h696v-1459q0 -126 35 -176q34 -49 113 -49q131 0 286 143v1541h697v-2241h-615l-37 197q-370 -254 -651 -254q-263 0 -393 155q-131 157 -131 533v1610z" />
<glyph unicode="v" horiz-adv-x="1986" d="M2060 2241l-786 -2241h-533l-815 2241h779l331 -1221l291 1221h733z" />
<glyph unicode="w" horiz-adv-x="2760" d="M2785 2241l-512 -2241h-467l-405 1331l-410 -1331h-471l-540 2241h716l176 -1229l316 1229h467l327 -1221l136 1221h667z" />
<glyph unicode="x" horiz-adv-x="2125" d="M856 2241l295 -562l205 562h721l-533 -1160l-74 -4l570 -1077h-795l-299 565l-209 -565h-721l533 1159h82l-570 1082h795z" />
<glyph unicode="y" horiz-adv-x="1974" d="M2060 2241l-647 -2249q-78 -275 -190 -475q-113 -201 -258 -324q-143 -121 -275 -190q-129 -67 -309 -129l-250 557q487 217 614 630l46 148h-242l-598 2032h741l340 -1520l307 1520h721z" />
<glyph unicode="z" horiz-adv-x="1581" d="M1520 0h-1434l-25 422l672 1298h-635v521h1368l58 -418l-701 -1299h697v-524z" />
<glyph unicode="{" horiz-adv-x="1130" d="M1126 -225l-102 -418q-115 22 -188 43q-53 15 -174 72q-112 52 -168 125q-58 76 -103 204q-47 135 -47 310v565q0 178 -14 282q-16 117 -51 207q-38 97 -115 146q-78 49 -201 57v397q183 4 283 136q98 129 98 352v680q0 186 49 321q50 139 111 207q63 70 170 121 q108 51 168 63q73 15 162 29l73 -418q-103 -17 -143 -96q-41 -80 -41 -264v-696q0 -280 -105 -437t-219 -186q140 -69 232 -242t92 -434v-778q0 -279 233 -348z" />
<glyph unicode="|" horiz-adv-x="1179" d="M922 -471h-664v3801h664v-3801z" />
<glyph unicode="}" horiz-adv-x="1130" d="M4 3260l111 418q137 -31 184 -43q66 -17 172 -69q114 -56 170 -125q55 -69 102 -203q48 -138 48 -309v-566q0 -354 71 -514q72 -161 305 -182v-397q-179 -4 -278 -135q-98 -129 -98 -353v-676q0 -183 -50 -321q-51 -141 -110 -207q-63 -70 -170 -121q-108 -51 -168 -63 q-73 -15 -162 -29l-74 418q103 21 146 98t43 262v697q0 280 104 436q105 158 211 182q-132 74 -223 246q-92 173 -92 434v774q0 279 -242 348z" />
<glyph unicode="~" horiz-adv-x="1998" d="M1778 1581l192 -459q-88 -109 -264 -209q-172 -98 -371 -98q-171 0 -389 135t-332 135q-231 0 -405 -167l-172 446q314 295 622 295q176 0 396 -137q221 -138 321 -138q181 0 402 197z" />
<glyph unicode="&#xa1;" horiz-adv-x="1011" d="M115 -799l37 1999h659l41 -1999h-737zM905 1901q0 -167 -117 -289q-117 -121 -276 -121q-169 0 -287 121q-119 122 -119 289q0 159 117 278t289 119q165 0 279 -119t114 -278z" />
<glyph unicode="&#xa2;" horiz-adv-x="1769" d="M1536 635l152 -549q-179 -90 -349 -123v-483h-585v520q-312 111 -473 399q-162 289 -162 711q0 430 168 721q167 289 467 401v455h585v-410q161 -29 344 -118l-151 -570q-202 140 -377 140q-303 0 -303 -562q0 -307 84 -481t248 -174q188 0 352 123z" />
<glyph unicode="&#xa3;" horiz-adv-x="2109" d="M1593 1335h-463v-172q0 -446 -94 -618h975v-545h-1786l-61 422q151 127 223 305q72 179 72 477v131h-312v529h312v237q0 423 268 707t645 284q331 0 692 -131l-147 -512q-234 111 -422 111q-176 0 -270 -133q-95 -134 -95 -346v-217h463v-529z" />
<glyph unicode="&#xa4;" horiz-adv-x="2203" d="M1729 1630h-635v-200h635v-496h-578q102 -422 393 -422q177 0 459 135l172 -557q-381 -147 -696 -147q-455 0 -723 264q-269 265 -359 727h-286v496h237v49q0 107 4 151h-241v500h307q111 451 381 713q269 262 725 262q283 0 618 -139l-176 -570q-242 135 -389 135 q-153 0 -260 -77q-109 -78 -170 -324h582v-500z" />
<glyph unicode="&#xa5;" horiz-adv-x="2461" d="M2331 3039l-476 -1032l21 12h410v-495h-652l-94 -205h746v-496h-709v-831h-700v831h-709v496h754l-95 205h-659v495h418l20 -16l-475 1036h721l381 -1216l364 1216h734z" />
<glyph unicode="&#xa6;" horiz-adv-x="1179" d="M258 1171h664v-1646h-664v1646zM922 1794h-664v1540h664v-1540z" />
<glyph unicode="&#xa7;" horiz-adv-x="2035" d="M1913 954q0 -344 -336 -565q164 -235 164 -487q0 -324 -228 -494q-229 -170 -600 -170q-375 0 -667 119l168 479q203 -98 430 -98q250 0 250 168q0 110 -99 227q-101 119 -237 229q-140 112 -279 240q-137 125 -237 301q-99 174 -99 367q0 360 369 581q-201 263 -201 557 q0 320 215 496t617 176q280 0 610 -106l-164 -471q-161 77 -418 77q-262 0 -262 -176q0 -108 103 -237q99 -123 250 -250l297 -260q147 -134 251 -322q103 -186 103 -381zM1294 967q0 38 -10 75q-10 39 -41 80t-51 70q-23 31 -76 80l-78 71l-96 84q-86 74 -94 80 q-98 -150 -98 -245q0 -30 6 -58q6 -29 24 -59q10 -18 19 -31.5l14 -21.5q18 -27 47 -56l51 -51q9 -9 66 -55q60 -48 65 -53q21 -20 74 -58l76 -57q102 111 102 205z" />
<glyph unicode="&#xa8;" horiz-adv-x="1499" d="M655 2908q0 -153 -104 -254q-105 -102 -248 -102q-156 0 -258 102t-102 254q0 156 102 258q103 103 258 103q142 0 248 -109q104 -107 104 -252zM1565 2908q0 -152 -107 -254q-106 -102 -262 -102q-147 0 -246 102q-98 101 -98 254q0 149 98 254q99 107 246 107 q155 0 262 -109t107 -252z" />
<glyph unicode="&#xa9;" horiz-adv-x="4472" d="M4293 1229q0 -655 -252 -1192q-251 -535 -725 -854q-472 -318 -1080 -318q-912 0 -1484 668t-572 1696q0 650 254 1188q253 536 727 852q473 315 1075 315q609 0 1080 -317q473 -318 725 -852t252 -1186zM3686 1225q0 763 -405 1280q-405 518 -1045 518 q-639 0 -1044 -518q-406 -519 -406 -1280q0 -787 404 -1293q403 -505 1046 -505t1047 518q403 517 403 1280zM2863 680l197 -524q-150 -79 -207 -105q-79 -36 -240 -74q-159 -38 -348 -38q-482 0 -790 344t-308 966q0 552 332 889q331 336 766 336q352 0 770 -217l-192 -541 q-221 116 -312 152q-93 37 -209 37q-172 0 -309 -154t-137 -498q0 -382 145 -561q145 -180 289 -180q136 0 244 31q100 28 309 137z" />
<glyph unicode="&#xaa;" horiz-adv-x="1396" d="M1319 713h-1278v504h1278v-504zM1274 1442h-488l-28 147q-2 -2 -6.5 -6t-12 -10l-14.5 -12l-35 -29q-22 -18 -35 -27q-26 -19 -34 -24q-7 -4 -33 -23q-22 -16 -37 -22l-35 -15q-23 -8 -37 -12q-1 0 -37 -8q-19 -4 -41 -4q-197 0 -297 139t-100 348q0 504 676 553v82 q0 65 -35 109q-34 43 -88 43q-150 0 -397 -107l-107 414q373 131 631 131q271 0 418 -168t147 -426v-688q0 -146 25 -385zM680 1921v201q-53 -5 -113 -54q-59 -49 -59 -126q0 -111 41 -111t131 90z" />
<glyph unicode="&#xab;" horiz-adv-x="2166" d="M807 1130l414 -851l-480 -127l-630 978l630 979l467 -147zM2019 389l-479 -131l-565 872l602 877l438 -143l-340 -725z" />
<glyph unicode="&#xac;" horiz-adv-x="2007" d="M1475 1081h-1491v557h2039v-1282h-544z" />
<glyph unicode="&#xad;" horiz-adv-x="1536" d="M1421 1032h-1290v561h1290v-561z" />
<glyph unicode="&#xae;" horiz-adv-x="4472" d="M4293 1229q0 -655 -252 -1192q-251 -535 -725 -854q-472 -318 -1080 -318q-912 0 -1484 668t-572 1696q0 650 254 1188q253 536 727 852q473 315 1075 315q609 0 1080 -317q473 -318 725 -852t252 -1186zM3686 1225q0 763 -405 1280q-405 518 -1045 518 q-639 0 -1044 -518q-406 -519 -406 -1280q0 -787 404 -1293q403 -505 1046 -505t1047 518q403 517 403 1280zM3076 1704q0 -423 -323 -647l385 -1069h-648l-245 905q-21 -1 -43 -1q-63 0 -138 9v-913h-626v2470h704q487 0 711 -209q223 -208 223 -545zM2462 1667 q0 159 -72 236q-71 75 -244 75h-82v-635q28 -3 55 -3q127 0 224 63q119 77 119 264z" />
<glyph unicode="&#xaf;" horiz-adv-x="1118" d="M1241 2568h-1352v463h1352v-463z" />
<glyph unicode="&#xb0;" horiz-adv-x="1593" d="M1561 2679q0 -330 -218 -559q-217 -228 -540 -228q-327 0 -539 224q-211 223 -211 563q0 328 217 555t533 227q323 0 540 -227q218 -229 218 -555zM1090 2679q0 163 -80 264q-79 100 -207 100q-119 0 -197 -100q-78 -101 -78 -264q0 -164 78 -269q77 -104 197 -104 q128 0 207 104q80 106 80 269z" />
<glyph unicode="&#xb1;" horiz-adv-x="2142" d="M1950 1438h-566v-680h-630v680h-566v540h566v713h630v-713h566v-540zM1950 0h-1762v561h1762v-561z" />
<glyph unicode="&#xb2;" horiz-adv-x="1294" d="M1217 1290h-1102l-49 287q557 644 557 913q0 144 -86 144q-110 0 -332 -107l-119 422q308 135 545 135q553 0 553 -544q0 -384 -389 -832h422v-418z" />
<glyph unicode="&#xb3;" horiz-adv-x="1228" d="M1176 1868q0 -287 -197 -445q-196 -157 -520 -157q-207 0 -414 53l119 438q201 -57 266 -57q168 0 168 143q0 164 -217 164h-184l-13 365h115q99 5 170 53q72 49 72 139q0 102 -99 102q-83 0 -258 -94l-135 385q267 148 553 148q237 0 383 -107q145 -106 145 -323 q0 -234 -184 -385q230 -107 230 -422z" />
<glyph unicode="&#xb4;" horiz-adv-x="454" d="M-225 2675l479 790l479 -315l-594 -656z" />
<glyph unicode="&#xb5;" horiz-adv-x="2260" d="M205 -1090v3331h700v-1516q102 -213 221 -213q99 0 166 106q68 107 68 300v1323h700v-1487q0 -424 62 -754h-611l-28 123q-127 -180 -283 -180q-167 0 -295 86v-1119h-700z" />
<glyph unicode="&#x3bc;" horiz-adv-x="2260" d="M205 -1090v3331h700v-1516q102 -213 221 -213q99 0 166 106q68 107 68 300v1323h700v-1487q0 -424 62 -754h-611l-28 123q-127 -180 -283 -180q-167 0 -295 86v-1119h-700z" />
<glyph unicode="&#xb6;" horiz-adv-x="2375" d="M1511 -418v3220h-340q-269 0 -436 -107q-166 -106 -166 -332q0 -265 183 -376t526 -111v-2294h-651v1770q-365 69 -555 342q-191 274 -191 616q0 1060 1233 1061h1057v-3789h-660z" />
<glyph unicode="&#xb7;" horiz-adv-x="999" d="M918 1479q0 -167 -117 -289q-117 -121 -277 -121q-168 0 -286 121q-119 122 -119 289q0 159 117 278t288 119q165 0 279 -119q115 -120 115 -278z" />
<glyph unicode="&#xb8;" horiz-adv-x="1040" d="M700 20l-32 -262q323 -118 323 -430q0 -238 -170 -346q-169 -108 -420 -108q-176 0 -344 45l90 336q138 -37 209 -37q189 0 189 127q0 142 -266 163l49 517z" />
<glyph unicode="&#xb9;" horiz-adv-x="1241" d="M1073 1298h-553l17 1192l-377 -184l-140 373l623 413h430v-1794z" />
<glyph unicode="&#xba;" horiz-adv-x="1622" d="M1552 713h-1450v504h1450v-504zM29 2269q0 111 32 232q32 122 107 270q74 146 231 242t375 96q184 0 324 -66q141 -67 213 -155q71 -87 116 -215q44 -127 56 -215q12 -90 12 -181q0 -130 -35 -268q-35 -139 -112 -278q-78 -141 -230 -230q-151 -88 -360 -88 q-217 0 -371 92q-152 91 -225 238q-74 150 -103 274q-30 129 -30 252zM635 2281q0 -135 33 -258q33 -122 102 -122q127 0 127 364q0 120 -37 240q-37 121 -98 121q-127 0 -127 -345z" />
<glyph unicode="&#xbb;" horiz-adv-x="2183" d="M954 1974l480 135l639 -979l-639 -978l-463 147l397 831zM152 1872l479 127l569 -873l-594 -868l-450 148l344 716z" />
<glyph unicode="&#xbc;" horiz-adv-x="3305" d="M1065 1298h-553l20 1192l-380 -184l-140 373l623 413h430v-1794zM2363 1802h533l-352 -1024h163l136 463h290v-463h156v-422h-156v-356h-540v356h-459l-143 369zM2929 2773l-1921 -2753l-410 386l1909 2760z" />
<glyph unicode="&#xbd;" horiz-adv-x="3432" d="M2875 2773l-1921 -2753l-409 386l1909 2760zM3346 0h-1101l-50 283q558 645 558 917q0 143 -87 143q-112 0 -331 -106l-119 422q308 135 545 135q553 0 553 -545q0 -383 -389 -831h421v-418zM1065 1298h-553l20 1192l-380 -184l-140 373l623 413h430v-1794z" />
<glyph unicode="&#xbe;" horiz-adv-x="3244" d="M2826 2773l-1921 -2753l-409 386l1908 2760zM1176 1868q0 -287 -197 -445q-196 -157 -520 -157q-207 0 -414 53l119 438q201 -57 266 -57q168 0 168 143q0 164 -217 164h-184l-13 365h115q99 5 170 53q72 49 72 139q0 102 -99 102q-83 0 -258 -94l-135 385 q267 148 553 148q237 0 383 -107q145 -106 145 -323q0 -234 -184 -385q230 -107 230 -422zM2298 1802h532l-352 -1024h164l139 463h287l4 -463h152v-422h-152v-356h-541v356h-463l-139 369z" />
<glyph unicode="&#xbf;" horiz-adv-x="1753" d="M1356 1245v-250q0 -219 -74 -403q-73 -181 -160 -279q-86 -96 -159 -213q-74 -118 -74 -223q0 -172 184 -172q130 0 410 176l217 -483q-414 -246 -782 -246q-390 0 -564 189t-174 479q0 194 76 362q78 172 166 275q90 105 166 260t76 323v205h692zM606 1888 q0 168 117 289t276 121q168 0 289 -121t121 -289q0 -159 -119 -278t-291 -119q-164 0 -278 119q-115 120 -115 278z" />
<glyph unicode="&#xc0;" horiz-adv-x="2543" d="M1778 0l-201 721h-680l-201 -721h-700l831 3043h836l877 -3043h-762zM676 3920l553 303l430 -795l-422 -180zM1229 2540l-221 -1266h454z" />
<glyph unicode="&#xc1;" horiz-adv-x="2543" d="M1778 0l-201 721h-680l-201 -721h-700l831 3043h836l877 -3043h-762zM860 3428l475 791l488 -316l-598 -655zM1229 2540l-221 -1266h454z" />
<glyph unicode="&#xc2;" horiz-adv-x="2543" d="M1778 0l-201 721h-680l-201 -721h-700l831 3043h836l877 -3043h-762zM1237 4149l762 -667l-340 -263l-418 324l-418 -324l-323 234zM1229 2540l-221 -1266h454z" />
<glyph unicode="&#xc3;" horiz-adv-x="2543" d="M1778 0l-201 721h-680l-201 -721h-700l831 3043h836l877 -3043h-762zM1724 3826l254 -262q-258 -320 -540 -320q-121 0 -234 55q-115 56 -176 56q-93 0 -278 -131l-230 307q270 270 533 270q97 0 217 -53t192 -53q105 0 262 131zM1229 2540l-221 -1266h454z" />
<glyph unicode="&#xc4;" horiz-adv-x="2543" d="M1778 0l-201 721h-680l-201 -721h-700l831 3043h836l877 -3043h-762zM2114 3645q0 -156 -117 -264t-289 -108q-155 0 -266 108t-111 264q0 151 109 265q108 112 268 112q169 0 287 -112q119 -113 119 -265zM1126 3645q0 -159 -114 -266q-113 -106 -271 -106 q-167 0 -280 108t-113 264q0 161 117 269t276 108q164 0 275 -112q110 -111 110 -265zM1229 2540l-221 -1266h454z" />
<glyph unicode="&#xc5;" horiz-adv-x="2543" d="M1794 3240q0 -177 -98 -320l844 -2920h-762l-201 721h-680l-201 -721h-700l790 2904q-102 147 -102 336q0 237 164 407t389 170q229 0 393 -170t164 -407zM1229 2540l-221 -1266h454zM1368 3240q0 201 -131 201t-131 -201q0 -197 131 -197h12q119 12 119 197z" />
<glyph unicode="&#xc6;" horiz-adv-x="3178" d="M3064 0h-1352l-74 840h-700l-369 -840h-823l1577 3043h1683v-565h-917l65 -623h734v-561h-680l82 -729h774v-565zM1606 1356l-99 1098l-344 -1098h443z" />
<glyph unicode="&#xc7;" horiz-adv-x="2035" d="M1933 614l70 -577q-282 -78 -545 -90l-20 -189q323 -118 323 -430q0 -238 -170 -346q-169 -108 -420 -108q-176 0 -344 45l91 336q138 -37 208 -37q189 0 189 127q0 142 -266 163l45 467q-983 168 -983 1512q0 271 39 500q39 231 133 438q95 210 241 356q148 148 375 236 t522 88q245 0 578 -86l-90 -570q-258 78 -475 78q-307 0 -451 -235q-143 -234 -143 -731q0 -1041 598 -1041q259 0 495 94z" />
<glyph unicode="&#xc8;" horiz-adv-x="2125" d="M2011 0h-1769v3043h1712v-565h-1016v-635h917v-561h-917v-717h1073v-565zM545 3920l553 303l430 -795l-422 -180z" />
<glyph unicode="&#xc9;" horiz-adv-x="2125" d="M2011 0h-1769v3043h1712v-565h-1016v-635h917v-561h-917v-717h1073v-565zM729 3428l475 791l488 -316l-598 -655z" />
<glyph unicode="&#xca;" horiz-adv-x="2125" d="M2011 0h-1769v3043h1712v-565h-1016v-635h917v-561h-917v-717h1073v-565zM1106 4149l762 -667l-340 -263l-418 324l-418 -324l-323 234z" />
<glyph unicode="&#xcb;" horiz-adv-x="2125" d="M2011 0h-1769v3043h1712v-565h-1016v-635h917v-561h-917v-717h1073v-565zM995 3645q0 -159 -114 -266q-113 -106 -271 -106q-168 0 -280 108q-113 108 -113 264q0 161 117 269t276 108q164 0 275 -112q110 -111 110 -265zM1982 3645q0 -157 -116 -264 q-117 -108 -289 -108q-155 0 -266 108t-111 264q0 151 109 265q108 112 268 112q169 0 287 -112t118 -265z" />
<glyph unicode="&#xcc;" horiz-adv-x="1204" d="M954 0h-704v3043h704v-3043zM57 3920l553 303l430 -795l-422 -180z" />
<glyph unicode="&#xcd;" horiz-adv-x="1204" d="M954 0h-704v3043h704v-3043zM238 3428l475 791l487 -316l-598 -655z" />
<glyph unicode="&#xce;" horiz-adv-x="1204" d="M954 0h-704v3043h704v-3043zM618 4149l762 -667l-340 -263l-417 324l-418 -324l-324 234z" />
<glyph unicode="&#xcf;" horiz-adv-x="1204" d="M954 0h-704v3043h704v-3043zM508 3645q0 -159 -115 -266q-113 -106 -270 -106q-169 0 -281 108t-112 264q0 162 116 269q117 108 277 108q163 0 274 -112t111 -265zM1495 3645q0 -156 -117 -264t-288 -108q-156 0 -267 108q-110 107 -110 264q0 153 108 265t269 112 q168 0 286 -112q119 -113 119 -265z" />
<glyph unicode="&#xd0;" horiz-adv-x="2596" d="M2486 1540q0 -725 -329 -1132q-330 -408 -1018 -408h-897v3043h938q1306 0 1306 -1503zM1774 1511q0 517 -150 742t-522 225h-164v-1913h233q314 0 459 226q144 225 144 720zM1835 3367h-1352v463h1352v-463z" />
<glyph unicode="&#xd1;" horiz-adv-x="2744" d="M2507 0h-516l-1082 1692v-1692h-667v3043h516l1081 -1654v1654h668v-3043zM1872 3826l254 -262q-258 -320 -541 -320q-120 0 -233 55q-115 56 -176 56q-94 0 -279 -131l-229 307q270 270 532 270q97 0 217 -53t193 -53q105 0 262 131z" />
<glyph unicode="&#xd2;" horiz-adv-x="2691" d="M2572 1569q0 -250 -35 -477t-124 -439q-90 -214 -230 -368q-141 -154 -364 -248q-224 -94 -516 -94q-1183 0 -1184 1540q0 247 39 467t131 436q92 215 231 371q139 155 361 252q221 96 495 96q333 0 572 -127t372 -350q133 -222 193 -486q59 -258 59 -573zM1847 1536 q0 496 -108 750t-400 254q-193 0 -307 -140t-153 -354t-39 -543q0 -497 116 -747q117 -252 392 -252q499 0 499 1032zM799 3920l553 303l430 -795l-422 -180z" />
<glyph unicode="&#xd3;" horiz-adv-x="2691" d="M2572 1569q0 -250 -35 -477t-124 -439q-90 -214 -230 -368q-141 -154 -364 -248q-224 -94 -516 -94q-1183 0 -1184 1540q0 247 39 467t131 436q92 215 231 371q139 155 361 252q221 96 495 96q333 0 572 -127t372 -350q133 -222 193 -486q59 -258 59 -573zM1847 1536 q0 496 -108 750t-400 254q-193 0 -307 -140t-153 -354t-39 -543q0 -497 116 -747q117 -252 392 -252q499 0 499 1032zM983 3428l475 791l488 -316l-598 -655z" />
<glyph unicode="&#xd4;" horiz-adv-x="2691" d="M2572 1569q0 -250 -35 -477t-124 -439q-90 -214 -230 -368q-141 -154 -364 -248q-224 -94 -516 -94q-1183 0 -1184 1540q0 247 39 467t131 436q92 215 231 371q139 155 361 252q221 96 495 96q333 0 572 -127t372 -350q133 -222 193 -486q59 -258 59 -573zM1847 1536 q0 496 -108 750t-400 254q-193 0 -307 -140t-153 -354t-39 -543q0 -497 116 -747q117 -252 392 -252q499 0 499 1032zM1364 4149l762 -667l-340 -263l-418 324l-418 -324l-323 234z" />
<glyph unicode="&#xd5;" horiz-adv-x="2691" d="M2572 1569q0 -250 -35 -477t-124 -439q-90 -214 -230 -368q-141 -154 -364 -248q-224 -94 -516 -94q-1183 0 -1184 1540q0 247 39 467t131 436q92 215 231 371q139 155 361 252q221 96 495 96q333 0 572 -127t372 -350q133 -222 193 -486q59 -258 59 -573zM1847 1536 q0 496 -108 750t-400 254q-193 0 -307 -140t-153 -354t-39 -543q0 -497 116 -747q117 -252 392 -252q499 0 499 1032zM1847 3826l254 -262q-258 -320 -540 -320q-121 0 -234 55q-115 56 -176 56q-94 0 -279 -131l-229 307q270 270 533 270q97 0 217 -53t192 -53 q105 0 262 131z" />
<glyph unicode="&#xd6;" horiz-adv-x="2691" d="M2572 1569q0 -250 -35 -477t-124 -439q-90 -214 -230 -368q-141 -154 -364 -248q-224 -94 -516 -94q-1183 0 -1184 1540q0 247 39 467t131 436q92 215 231 371q139 155 361 252q221 96 495 96q333 0 572 -127t372 -350q133 -222 193 -486q59 -258 59 -573zM1847 1536 q0 496 -108 750t-400 254q-193 0 -307 -140t-153 -354t-39 -543q0 -497 116 -747q117 -252 392 -252q499 0 499 1032zM1249 3645q0 -159 -114 -266q-113 -106 -271 -106q-168 0 -280 108q-113 108 -113 264q0 161 117 269t276 108q164 0 275 -112q110 -111 110 -265z M2236 3645q0 -157 -116 -264q-117 -108 -289 -108q-155 0 -266 108t-111 264q0 151 109 265q108 112 268 112q169 0 287 -112t118 -265z" />
<glyph unicode="&#xd7;" horiz-adv-x="2138" d="M2048 1901l-578 -697l582 -696l-405 -410l-578 701l-577 -701l-402 410l574 696l-578 705l401 409l582 -708l578 704z" />
<glyph unicode="&#xd8;" horiz-adv-x="2695" d="M2572 1569q0 -250 -35 -477t-124 -439q-90 -214 -230 -368q-141 -154 -364 -248q-224 -94 -516 -94q-464 0 -738 229l-254 -291l-417 447l327 368q-102 324 -102 787q0 247 39 467t131 436q92 215 231 371q139 155 361 252q221 96 495 96q463 0 754 -258l278 315 l410 -450l-352 -398q106 -322 106 -745zM840 1503v-151l872 983q-123 205 -373 205q-193 0 -307 -140t-153 -354t-39 -543zM1847 1536v127l-856 -971q118 -188 357 -188q499 0 499 1032z" />
<glyph unicode="&#xd9;" horiz-adv-x="2613" d="M2380 3043v-2052q0 -466 -277 -758q-275 -290 -833 -290q-551 0 -793 284q-244 286 -244 756v2060h693v-1921q0 -294 78 -438q77 -143 315 -143q122 0 201 41q77 40 112 129t45 176q11 93 11 235v1921h692zM774 3920l553 303l430 -795l-422 -180z" />
<glyph unicode="&#xda;" horiz-adv-x="2613" d="M2380 3043v-2052q0 -466 -277 -758q-275 -290 -833 -290q-551 0 -793 284q-244 286 -244 756v2060h693v-1921q0 -294 78 -438q77 -143 315 -143q122 0 201 41q77 40 112 129t45 176q11 93 11 235v1921h692zM958 3428l476 791l487 -316l-598 -655z" />
<glyph unicode="&#xdb;" horiz-adv-x="2613" d="M2380 3043v-2052q0 -466 -277 -758q-275 -290 -833 -290q-551 0 -793 284q-244 286 -244 756v2060h693v-1921q0 -294 78 -438q77 -143 315 -143q122 0 201 41q77 40 112 129t45 176q11 93 11 235v1921h692zM1335 4149l762 -667l-340 -263l-418 324l-417 -324l-324 234z " />
<glyph unicode="&#xdc;" horiz-adv-x="2613" d="M2380 3043v-2052q0 -466 -277 -758q-275 -290 -833 -290q-551 0 -793 284q-244 286 -244 756v2060h693v-1921q0 -294 78 -438q77 -143 315 -143q122 0 201 41q77 40 112 129t45 176q11 93 11 235v1921h692zM1225 3645q0 -159 -115 -266q-113 -106 -270 -106 q-168 0 -281 108t-113 264q0 161 117 269t277 108q163 0 274 -112t111 -265zM2212 3645q0 -156 -117 -264t-289 -108q-155 0 -266 108q-110 107 -110 264q0 153 108 265t268 112q169 0 287 -112q119 -113 119 -265z" />
<glyph unicode="&#xdd;" horiz-adv-x="2273" d="M2380 3043l-885 -2027v-1016h-696v979l-901 2064h774l487 -1339l500 1339h721zM786 3428l476 791l487 -316l-598 -655z" />
<glyph unicode="&#xde;" horiz-adv-x="2277" d="M262 3043h701v-528h139q310 0 538 -105t338 -270q112 -168 158 -325q47 -161 47 -320q0 -165 -51 -328t-162 -319q-112 -157 -315 -252q-205 -96 -475 -96q-125 0 -217 16v-516h-701v3043zM1442 1495q0 80 -10 137t-46 140q-34 79 -126 124q-94 46 -232 46h-65v-865 q74 -20 192 -20q151 0 219 129q68 130 68 309z" />
<glyph unicode="&#xdf;" horiz-adv-x="2326" d="M1507 487q115 0 115 164q0 98 -80 205q-80 106 -174 195q-96 90 -174 249q-80 163 -80 355q0 205 82 368q85 168 162 289q80 125 80 244q0 117 -58 207q-57 88 -168 88q-150 0 -227 -160q-76 -158 -76 -426v-2265h-700v2265q0 519 254 823q253 303 749 303 q430 0 678 -213t248 -540q0 -223 -80 -397q-77 -167 -160 -297q-79 -124 -79 -236q0 -90 51 -172q51 -83 127 -160q71 -72 149 -168q75 -92 125 -233q51 -144 51 -324q0 -211 -75 -358q-76 -149 -201 -223q-129 -76 -246 -105q-126 -31 -248 -31q-310 0 -569 140l168 561 q243 -148 356 -148z" />
<glyph unicode="&#xe0;" horiz-adv-x="1937" d="M1790 0h-557l-57 221q-8 -9 -58 -43l-65 -47q-21 -15 -64 -43q-50 -32 -74 -43q-16 -7 -73 -35q-46 -22 -86 -30q-83 -16 -90 -17q-54 -8 -101 -8q-234 0 -352 182q-119 184 -119 453q0 615 950 688v274q0 226 -221 226q-187 0 -512 -131l-135 499q435 152 778 152 q430 0 602 -201q173 -202 173 -545v-823q0 -262 61 -729zM1049 532v373q-113 -12 -175 -24t-120 -62t-58 -135q0 -113 47 -180q47 -66 121 -66q72 0 185 94zM348 3166l557 303l426 -794l-418 -181z" />
<glyph unicode="&#xe1;" horiz-adv-x="1937" d="M1790 0h-557l-57 221q-8 -9 -58 -43l-65 -47q-21 -15 -64 -43q-50 -32 -74 -43q-16 -7 -73 -35q-46 -22 -86 -30q-83 -16 -90 -17q-54 -8 -101 -8q-234 0 -352 182q-119 184 -119 453q0 615 950 688v274q0 226 -221 226q-187 0 -512 -131l-135 499q435 152 778 152 q430 0 602 -201q173 -202 173 -545v-823q0 -262 61 -729zM1049 532v373q-113 -12 -175 -24t-120 -62t-58 -135q0 -113 47 -180q47 -66 121 -66q72 0 185 94zM643 2675l479 790l480 -315l-594 -656z" />
<glyph unicode="&#xe2;" horiz-adv-x="1937" d="M1790 0h-557l-57 221q-8 -9 -58 -43l-65 -47q-21 -15 -64 -43q-50 -32 -74 -43q-16 -7 -73 -35q-46 -22 -86 -30q-83 -16 -90 -17q-54 -8 -101 -8q-234 0 -352 182q-119 184 -119 453q0 615 950 688v274q0 226 -221 226q-187 0 -512 -131l-135 499q435 152 778 152 q430 0 602 -201q173 -202 173 -545v-823q0 -262 61 -729zM1049 532v373q-113 -12 -175 -24t-120 -62t-58 -135q0 -113 47 -180q47 -66 121 -66q72 0 185 94zM954 3396l762 -664l-340 -270l-413 327l-422 -327l-324 237z" />
<glyph unicode="&#xe3;" horiz-adv-x="1937" d="M1790 0h-557l-57 221q-8 -9 -58 -43l-65 -47q-21 -15 -64 -43q-50 -32 -74 -43q-16 -7 -73 -35q-46 -22 -86 -30q-83 -16 -90 -17q-54 -8 -101 -8q-234 0 -352 182q-119 184 -119 453q0 615 950 688v274q0 226 -221 226q-187 0 -512 -131l-135 499q435 152 778 152 q430 0 602 -201q173 -202 173 -545v-823q0 -262 61 -729zM1049 532v373q-113 -12 -175 -24t-120 -62t-58 -135q0 -113 47 -180q47 -66 121 -66q72 0 185 94zM1421 3150l250 -262q-258 -324 -541 -324q-142 0 -243 57q-102 58 -142 58q-95 0 -303 -135l-225 307 q262 274 533 274q118 0 221 -53t155 -53q131 0 295 131z" />
<glyph unicode="&#xe4;" horiz-adv-x="1937" d="M1790 0h-557l-57 221q-8 -9 -58 -43l-65 -47q-21 -15 -64 -43q-50 -32 -74 -43q-16 -7 -73 -35q-46 -22 -86 -30q-83 -16 -90 -17q-54 -8 -101 -8q-234 0 -352 182q-119 184 -119 453q0 615 950 688v274q0 226 -221 226q-187 0 -512 -131l-135 499q435 152 778 152 q430 0 602 -201q173 -202 173 -545v-823q0 -262 61 -729zM1049 532v373q-113 -12 -175 -24t-120 -62t-58 -135q0 -113 47 -180q47 -66 121 -66q72 0 185 94zM864 2908q0 -153 -104 -254q-105 -102 -248 -102q-156 0 -258 102t-102 254q0 156 102 258q103 103 258 103 q142 0 248 -109q104 -107 104 -252zM1774 2908q0 -152 -107 -254t-262 -102q-147 0 -246 102q-98 101 -98 254q0 149 98 254q99 107 246 107q155 0 262 -109t107 -252z" />
<glyph unicode="&#xe5;" horiz-adv-x="1937" d="M1790 0h-557l-57 221q-8 -9 -58 -43l-65 -47q-21 -15 -64 -43q-50 -32 -74 -43q-16 -7 -73 -35q-46 -22 -86 -30q-83 -16 -90 -17q-54 -8 -101 -8q-234 0 -352 182q-119 184 -119 453q0 615 950 688v274q0 226 -221 226q-187 0 -512 -131l-135 499q435 152 778 152 q430 0 602 -201q173 -202 173 -545v-823q0 -262 61 -729zM1049 532v373q-113 -12 -175 -24t-120 -62t-58 -135q0 -113 47 -180q47 -66 121 -66q72 0 185 94zM1524 3043q0 -236 -164 -405q-164 -168 -393 -168q-230 0 -392 168q-161 167 -161 405t164 408t389 170 q229 0 393 -170t164 -408zM1098 3043q0 82 -39 142q-38 59 -92 59q-55 0 -93 -59q-38 -58 -38 -142t36 -139q38 -57 95 -57q50 0 90 59q41 61 41 137z" />
<glyph unicode="&#xe6;" horiz-adv-x="2777" d="M1901 -57q-415 0 -623 258q-320 -246 -635 -246q-257 0 -397 168q-140 169 -140 438q0 374 250 543t701 207v229q0 111 -60 174q-61 64 -157 64q-191 0 -516 -131l-136 499q435 152 770 152q292 0 476 -213q254 213 454 213q356 0 559 -277t203 -702q0 -56 -29 -348h-991 q50 -504 365 -504q167 0 475 164l151 -500q-330 -188 -720 -188zM1802 1827q-107 0 -164 -135t-57 -312h447q0 447 -226 447zM889 438q94 0 229 90q-53 191 -65 410q-348 -33 -348 -270q0 -94 53 -162t131 -68z" />
<glyph unicode="&#xe7;" horiz-adv-x="1671" d="M1507 606l123 -508q-196 -106 -512 -135l-24 -205q323 -118 323 -430q0 -238 -170 -346q-169 -108 -420 -108q-176 0 -344 45l90 336q138 -37 209 -37q189 0 189 127q0 142 -266 163l45 472q-648 135 -648 1114q0 623 252 905t731 282q295 0 533 -86l-119 -553 q-185 99 -364 99q-156 0 -240 -127q-84 -128 -84 -451q0 -328 88 -497q89 -170 252 -170q145 0 356 110z" />
<glyph unicode="&#xe8;" horiz-adv-x="1884" d="M1774 971h-1053q29 -282 119 -391q91 -109 274 -109q176 0 504 152l151 -496q-375 -184 -741 -184q-499 0 -706 313q-207 314 -207 862q0 1180 872 1180q431 0 623 -270t192 -701q0 -191 -28 -356zM373 3166l557 303l426 -794l-418 -181zM938 1835q-111 0 -166 -106 t-63 -349h467v33q0 199 -48 307q-51 115 -190 115z" />
<glyph unicode="&#xe9;" horiz-adv-x="1884" d="M1774 971h-1053q29 -282 119 -391q91 -109 274 -109q176 0 504 152l151 -496q-375 -184 -741 -184q-499 0 -706 313q-207 314 -207 862q0 1180 872 1180q431 0 623 -270t192 -701q0 -191 -28 -356zM664 2675l479 790l479 -315l-594 -656zM938 1835q-111 0 -166 -106 t-63 -349h467v33q0 199 -48 307q-51 115 -190 115z" />
<glyph unicode="&#xea;" horiz-adv-x="1884" d="M1774 971h-1053q29 -282 119 -391q91 -109 274 -109q176 0 504 152l151 -496q-375 -184 -741 -184q-499 0 -706 313q-207 314 -207 862q0 1180 872 1180q431 0 623 -270t192 -701q0 -191 -28 -356zM979 3396l762 -664l-340 -270l-414 327l-422 -327l-323 237zM938 1835 q-111 0 -166 -106t-63 -349h467v33q0 199 -48 307q-51 115 -190 115z" />
<glyph unicode="&#xeb;" horiz-adv-x="1884" d="M1774 971h-1053q29 -282 119 -391q91 -109 274 -109q176 0 504 152l151 -496q-375 -184 -741 -184q-499 0 -706 313q-207 314 -207 862q0 1180 872 1180q431 0 623 -270t192 -701q0 -191 -28 -356zM885 2908q0 -152 -105 -254t-248 -102q-156 0 -258 102t-102 254 q0 156 102 258q103 103 258 103q142 0 248 -109q105 -108 105 -252zM1794 2908q0 -152 -106 -254t-263 -102q-146 0 -245 102t-99 254q0 148 99 254q99 107 245 107q156 0 263 -109q106 -107 106 -252zM938 1835q-111 0 -166 -106t-63 -349h467v33q0 199 -48 307 q-51 115 -190 115z" />
<glyph unicode="&#xec;" horiz-adv-x="1134" d="M918 0h-701v2241h701v-2241zM-37 3166l557 303l426 -794l-418 -181z" />
<glyph unicode="&#xed;" horiz-adv-x="1134" d="M918 0h-701v2241h701v-2241zM254 2675l479 790l479 -315l-594 -656z" />
<glyph unicode="&#xee;" horiz-adv-x="1134" d="M918 0h-701v2241h701v-2241zM569 3396l762 -664l-340 -270l-413 327l-422 -327l-324 237z" />
<glyph unicode="&#xef;" horiz-adv-x="1134" d="M918 0h-701v2241h701v-2241zM475 2908q0 -153 -104 -254q-105 -102 -248 -102q-156 0 -258 102q-103 103 -103 254q0 155 103 258t258 103q142 0 248 -109q104 -107 104 -252zM1384 2908q0 -152 -106 -254t-262 -102q-147 0 -246 102q-98 101 -98 254q0 149 98 254 q99 107 246 107q155 0 262 -109q106 -107 106 -252z" />
<glyph unicode="&#xf0;" horiz-adv-x="2166" d="M909 2040l-250 307l275 242q-188 196 -459 295l246 528q397 -140 684 -414l344 295l229 -311l-319 -283q422 -602 422 -1425q0 -613 -244 -973q-243 -358 -760 -358q-451 0 -710 262q-261 264 -261 708q0 295 111 523q110 226 285 333q176 108 389 136q50 7 99 7 q165 0 325 -73q-52 232 -152 426zM840 971q0 -197 69 -326t189 -129q274 0 274 725q0 6 -2 80t-2 84q-99 38 -184 38q-108 0 -193 -61q-151 -108 -151 -411z" />
<glyph unicode="&#xf1;" horiz-adv-x="2240" d="M2036 0h-697v1458q0 124 -34 174q-35 51 -113 51q-132 0 -287 -143v-1540h-696v2241h614l37 -201q369 258 651 258q263 0 394 -154t131 -534v-1610zM1610 3150l250 -262q-258 -324 -541 -324q-143 0 -244 57q-102 58 -141 58q-94 0 -303 -135l-225 307q262 274 532 274 q118 0 221 -53t156 -53q131 0 295 131z" />
<glyph unicode="&#xf2;" horiz-adv-x="2146" d="M106 1102q0 552 238 874t754 322q938 0 938 -1143q0 -557 -242 -885q-242 -327 -741 -327q-487 0 -717 309q-230 310 -230 850zM807 1147q0 -355 65 -510q66 -158 205 -158q258 0 258 651q0 330 -61 482q-62 153 -201 153q-140 0 -203 -141t-63 -477zM475 3166l557 303 l426 -794l-418 -181z" />
<glyph unicode="&#xf3;" horiz-adv-x="2146" d="M106 1102q0 552 238 874t754 322q938 0 938 -1143q0 -557 -242 -885q-242 -327 -741 -327q-487 0 -717 309q-230 310 -230 850zM807 1147q0 -355 65 -510q66 -158 205 -158q258 0 258 651q0 330 -61 482q-62 153 -201 153q-140 0 -203 -141t-63 -477zM766 2675l479 790 l479 -315l-594 -656z" />
<glyph unicode="&#xf4;" horiz-adv-x="2146" d="M106 1102q0 552 238 874t754 322q938 0 938 -1143q0 -557 -242 -885q-242 -327 -741 -327q-487 0 -717 309q-230 310 -230 850zM807 1147q0 -355 65 -510q66 -158 205 -158q258 0 258 651q0 330 -61 482q-62 153 -201 153q-140 0 -203 -141t-63 -477zM1081 3396l762 -664 l-340 -270l-413 327l-422 -327l-324 237z" />
<glyph unicode="&#xf5;" horiz-adv-x="2146" d="M106 1102q0 552 238 874t754 322q938 0 938 -1143q0 -557 -242 -885q-242 -327 -741 -327q-487 0 -717 309q-230 310 -230 850zM807 1147q0 -355 65 -510q66 -158 205 -158q258 0 258 651q0 330 -61 482q-62 153 -201 153q-140 0 -203 -141t-63 -477zM1544 3150l250 -262 q-258 -324 -541 -324q-143 0 -243 57q-102 58 -142 58q-94 0 -303 -135l-225 307q262 274 532 274q119 0 222 -53t155 -53q131 0 295 131z" />
<glyph unicode="&#xf6;" horiz-adv-x="2146" d="M106 1102q0 552 238 874t754 322q938 0 938 -1143q0 -557 -242 -885q-242 -327 -741 -327q-487 0 -717 309q-230 310 -230 850zM807 1147q0 -355 65 -510q66 -158 205 -158q258 0 258 651q0 330 -61 482q-62 153 -201 153q-140 0 -203 -141t-63 -477zM987 2908 q0 -153 -104 -254q-105 -102 -248 -102q-156 0 -258 102q-103 103 -103 254q0 155 103 258t258 103q142 0 248 -109q104 -107 104 -252zM1896 2908q0 -152 -106 -254t-262 -102q-147 0 -246 102q-98 101 -98 254q0 149 98 254q99 107 246 107q155 0 262 -109 q106 -107 106 -252z" />
<glyph unicode="&#xf7;" horiz-adv-x="2138" d="M2019 1335l-1654 -729l-189 512l1655 729zM1839 352q0 -168 -117 -289q-116 -120 -276 -120q-170 0 -287 120q-119 122 -119 289q0 160 117 279t289 119q164 0 278 -119q115 -120 115 -279zM1257 2142q0 -169 -116 -289t-277 -120q-169 0 -286 120q-119 122 -119 289 q0 162 116 279q117 119 289 119q165 0 279 -119t114 -279z" />
<glyph unicode="&#xf8;" horiz-adv-x="2146" d="M106 1102q0 552 238 874t754 322q331 0 549 -152l254 246l466 -487l-368 -353q37 -189 37 -397q0 -557 -242 -885q-242 -327 -741 -327q-333 0 -553 151l-254 -250l-455 488l356 344q-41 182 -41 426zM807 1147q0 -355 65 -510q66 -158 205 -158q258 0 258 651 q0 330 -61 482q-62 153 -201 153q-140 0 -203 -141t-63 -477z" />
<glyph unicode="&#xf9;" d="M205 2241h696v-1459q0 -126 35 -176q34 -49 113 -49q131 0 286 143v1541h697v-2241h-615l-37 197q-370 -254 -651 -254q-263 0 -393 155q-131 157 -131 533v1610zM492 3166l557 303l426 -794l-418 -181z" />
<glyph unicode="&#xfa;" d="M205 2241h696v-1459q0 -126 35 -176q34 -49 113 -49q131 0 286 143v1541h697v-2241h-615l-37 197q-370 -254 -651 -254q-263 0 -393 155q-131 157 -131 533v1610zM786 2675l480 790l479 -315l-594 -656z" />
<glyph unicode="&#xfb;" d="M205 2241h696v-1459q0 -126 35 -176q34 -49 113 -49q131 0 286 143v1541h697v-2241h-615l-37 197q-370 -254 -651 -254q-263 0 -393 155q-131 157 -131 533v1610zM1098 3396l762 -664l-340 -270l-414 327l-422 -327l-324 237z" />
<glyph unicode="&#xfc;" d="M205 2241h696v-1459q0 -126 35 -176q34 -49 113 -49q131 0 286 143v1541h697v-2241h-615l-37 197q-370 -254 -651 -254q-263 0 -393 155q-131 157 -131 533v1610zM1004 2908q0 -152 -105 -254t-248 -102q-156 0 -258 102t-102 254q0 156 102 258q103 103 258 103 q142 0 248 -109q105 -108 105 -252zM1913 2908q0 -152 -107 -254q-106 -102 -262 -102q-147 0 -246 102q-98 101 -98 254q0 149 98 254q99 107 246 107q155 0 262 -109t107 -252z" />
<glyph unicode="&#xfd;" horiz-adv-x="1974" d="M2060 2241l-647 -2249q-78 -275 -190 -475q-113 -201 -258 -324q-143 -121 -275 -190q-129 -67 -309 -129l-250 557q487 217 614 630l46 148h-242l-598 2032h741l340 -1520l307 1520h721zM721 2675l479 790l479 -315l-594 -656z" />
<glyph unicode="&#xfe;" horiz-adv-x="2187" d="M2093 1155q0 -505 -278 -858q-279 -354 -721 -354q-62 0 -181 32v-1060h-700v4415h696v-1114q158 82 303 82q406 0 643 -320q238 -321 238 -823zM1360 1106q0 623 -250 623q-115 0 -201 -103v-1044q116 -70 156 -70q139 0 217 186t78 408z" />
<glyph unicode="&#xff;" horiz-adv-x="1974" d="M2060 2241l-647 -2249q-78 -275 -190 -475q-113 -201 -258 -324q-143 -121 -275 -190q-129 -67 -309 -129l-250 557q487 217 614 630l46 148h-242l-598 2032h741l340 -1520l307 1520h721zM942 2908q0 -153 -104 -254q-105 -102 -248 -102q-156 0 -258 102 q-103 103 -103 254q0 155 103 258t258 103q142 0 248 -109q104 -107 104 -252zM1851 2908q0 -152 -106 -254q-107 -102 -262 -102q-147 0 -246 102q-98 101 -98 254q0 149 98 254q99 107 246 107q155 0 262 -109q106 -107 106 -252z" />
<glyph unicode="&#x152;" horiz-adv-x="3567" d="M3457 0h-1315q-51 0 -352 -31q-291 -30 -393 -30q-270 0 -479 81q-215 83 -347 226t-227 305q-95 163 -141 350q-50 202 -66 334q-18 145 -18 281q0 195 26 374q27 188 109 414q83 228 215 395q133 168 371 285q237 117 549 117q78 0 299 -29t376 -29h1319v-565h-1044 v-590h962v-561h-962v-762h1118v-565zM1651 545v1937q-84 41 -262 41q-135 0 -238 -74t-158 -178q-55 -105 -90 -252q-36 -153 -43 -262q-8 -122 -8 -241q0 -1004 537 -1004q139 0 262 33z" />
<glyph unicode="&#x153;" horiz-adv-x="3043" d="M2961 1294q0 -86 -45 -356h-1011q46 -199 133 -334q89 -137 186 -137q229 0 545 164l160 -492q-340 -196 -775 -196q-318 0 -569 348q-279 -348 -573 -348q-231 0 -404 88q-174 88 -272 215q-98 126 -160 297q-61 167 -82 309q-20 133 -20 274q0 129 20 258 q22 141 86 304q67 170 166 299q101 131 281 221t409 90q294 0 557 -324q234 324 557 324q384 0 596 -297q210 -296 215 -707zM803 1147q0 -635 221 -635q225 0 225 614q0 224 -49 414q-50 193 -176 193q-221 0 -221 -586zM2114 1827q-209 0 -209 -479h430v28q0 187 -54 316 q-57 135 -167 135z" />
<glyph unicode="&#x178;" horiz-adv-x="2273" d="M2380 3043l-885 -2027v-1016h-696v979l-901 2064h774l487 -1339l500 1339h721zM1057 3645q0 -159 -115 -266q-113 -106 -270 -106q-168 0 -281 108q-112 108 -112 264q0 162 116 269q117 108 277 108q163 0 274 -112t111 -265zM2044 3645q0 -156 -117 -264t-289 -108 q-155 0 -266 108q-110 107 -110 264q0 153 108 265t268 112q169 0 287 -112q119 -113 119 -265z" />
<glyph unicode="&#x2c6;" horiz-adv-x="1011" d="M451 3396l761 -664l-340 -270l-413 327l-422 -327l-324 237z" />
<glyph unicode="&#x2dc;" horiz-adv-x="1179" d="M1057 3150l250 -262q-258 -324 -541 -324q-144 0 -244 57q-102 58 -141 58q-95 0 -303 -135l-225 307q262 274 532 274q118 0 221 -53t156 -53q131 0 295 131z" />
<glyph unicode="&#x2000;" horiz-adv-x="2109" />
<glyph unicode="&#x2001;" horiz-adv-x="4222" />
<glyph unicode="&#x2002;" horiz-adv-x="2109" />
<glyph unicode="&#x2003;" horiz-adv-x="4222" />
<glyph unicode="&#x2004;" horiz-adv-x="1404" />
<glyph unicode="&#x2005;" horiz-adv-x="1052" />
<glyph unicode="&#x2006;" horiz-adv-x="700" />
<glyph unicode="&#x2007;" horiz-adv-x="700" />
<glyph unicode="&#x2008;" horiz-adv-x="524" />
<glyph unicode="&#x2009;" horiz-adv-x="843" />
<glyph unicode="&#x200a;" horiz-adv-x="233" />
<glyph unicode="&#x2010;" horiz-adv-x="1536" d="M1413 1032h-1290v561h1290v-561z" />
<glyph unicode="&#x2011;" horiz-adv-x="1536" d="M1413 1032h-1290v561h1290v-561z" />
<glyph unicode="&#x2013;" horiz-adv-x="2293" d="M2167 1032h-2044v561h2044v-561z" />
<glyph unicode="&#x2014;" horiz-adv-x="3584" d="M3457 1032h-3334v561h3334v-561z" />
<glyph unicode="&#x2018;" horiz-adv-x="1126" d="M725 3686l389 -348q-258 -282 -258 -463q0 -73 86 -188t86 -246q0 -159 -113 -260q-112 -100 -280 -100q-217 0 -336 160t-119 417q0 491 545 1028z" />
<glyph unicode="&#x2019;" horiz-adv-x="1126" d="M483 1937l-389 349q258 282 258 462q0 74 -86 189t-86 246q0 159 113 260q112 100 280 100q217 0 336 -160t119 -417q0 -492 -545 -1029z" />
<glyph unicode="&#x201a;" horiz-adv-x="1110" d="M479 -848l-389 348q258 282 258 463q0 74 -86 189t-86 245q0 159 113 260t280 101q217 0 336 -160t119 -418q0 -491 -545 -1028z" />
<glyph unicode="&#x201c;" horiz-adv-x="2150" d="M725 3686l389 -348q-258 -282 -258 -463q0 -73 86 -188t86 -246q0 -159 -113 -260q-112 -100 -280 -100q-217 0 -336 160t-119 417q0 491 545 1028zM1757 3686l389 -348q-258 -282 -258 -463q0 -73 86 -188t86 -246q0 -160 -112 -260t-281 -100q-217 0 -336 160t-119 417 q0 491 545 1028z" />
<glyph unicode="&#x201d;" horiz-adv-x="2150" d="M483 1937l-389 349q258 282 258 462q0 74 -86 189t-86 246q0 159 113 260q112 100 280 100q217 0 336 -160t119 -417q0 -492 -545 -1029zM1520 1937l-390 349q259 283 259 462q0 74 -86 189t-86 246q0 160 112 260t281 100q217 0 336 -160q118 -158 118 -417 q0 -492 -544 -1029z" />
<glyph unicode="&#x201e;" horiz-adv-x="2125" d="M479 -840l-389 348q258 282 258 463q0 74 -86 189t-86 246q0 159 113 260q112 100 280 100q217 0 336 -160t119 -418q0 -491 -545 -1028zM1520 -840l-390 348q259 283 259 463q0 74 -86 189t-86 246q0 160 112 260t281 100q217 0 336 -160q118 -158 118 -418 q0 -491 -544 -1028z" />
<glyph unicode="&#x2022;" horiz-adv-x="1536" d="M-94 1417q0 352 256 608t612 256q353 0 606 -256q254 -257 254 -608q0 -352 -254 -606t-606 -254q-360 0 -614 254t-254 606z" />
<glyph unicode="&#x2026;" horiz-adv-x="3305" d="M983 352q0 -168 -117 -289q-116 -120 -276 -120q-170 0 -287 120q-119 122 -119 289q0 160 117 279t289 119q164 0 278 -119q115 -120 115 -279zM2081 352q0 -168 -117 -289q-116 -120 -276 -120q-170 0 -287 120q-119 122 -119 289q0 160 117 279t289 119 q164 0 278 -119q115 -120 115 -279zM3187 352q0 -168 -117 -289q-116 -120 -277 -120q-169 0 -286 120q-119 122 -119 289q0 160 117 279t288 119q165 0 279 -119q115 -120 115 -279z" />
<glyph unicode="&#x202f;" horiz-adv-x="843" />
<glyph unicode="&#x2039;" horiz-adv-x="1560" d="M1409 1905l-459 -779l459 -761l-545 -218l-753 983l753 979z" />
<glyph unicode="&#x203a;" horiz-adv-x="1564" d="M651 1135l-495 753l540 226l758 -984l-758 -978l-544 196z" />
<glyph unicode="&#x205f;" horiz-adv-x="1052" />
<glyph unicode="&#x20ac;" horiz-adv-x="2203" d="M1729 1630h-635v-86v-114h635v-496h-578q102 -422 393 -422q177 0 459 135l172 -557q-381 -147 -696 -147q-455 0 -723 264q-269 265 -359 727h-286v496h237v49q0 107 4 151h-241v500h307q111 451 381 713q269 262 725 262q283 0 618 -139l-176 -570q-242 135 -389 135 q-153 0 -260 -77q-109 -78 -170 -324h582v-500z" />
<glyph unicode="&#x2122;" horiz-adv-x="3084" d="M1229 2920h-418v-1298h-483v1298h-418v410h1319v-410zM2982 1626h-500l-37 823l-278 -823h-209l-287 828l-61 -828h-451l123 1704h426l365 -967l372 967h414z" />
</font>
</defs>
</svg>
