<?xml version="1.0" standalone="no"?>
<!DOCTYPE svg PUBLIC "-//W3C//DTD SVG 1.1//EN" "http://www.w3.org/Graphics/SVG/1.1/DTD/svg11.dtd" >
<svg xmlns="http://www.w3.org/2000/svg">
<metadata>
This is a custom SVG webfont generated by Font Squirrel.
Designer    : Georg Seifert
Foundry     : Georg Seifert
Foundry URL : wwwfontsinfo
</metadata>
<defs>
<font id="webfontw9Qc68tI" horiz-adv-x="2129" >
<font-face units-per-em="4096" ascent="3277" descent="-819" />
<missing-glyph horiz-adv-x="966" />
<glyph unicode=" "  horiz-adv-x="966" />
<glyph unicode="&#x09;" horiz-adv-x="966" />
<glyph unicode="&#xa0;" horiz-adv-x="966" />
<glyph unicode="!" horiz-adv-x="1064" d="M840 3027l-33 -2126h-324l-28 2126h385zM922 184q0 -102 -68 -172q-68 -69 -162 -69q-102 0 -170 69q-67 68 -67 172q0 103 69 172q70 70 168 70q94 0 162 -70t68 -172z" />
<glyph unicode="&#x22;" horiz-adv-x="1421" d="M557 3076l-53 -680h-266l-50 676v418h369v-414zM1233 3076l-49 -680h-271l-41 676v418h361v-414z" />
<glyph unicode="#" horiz-adv-x="2359" d="M2159 627h-394v-1024h-331v1024h-500v-1024h-328v1024h-409v291h405v843h-405v287h409v995h328v-995h496v995h335v-995h398v-287h-398v-843h394v-291zM1430 918v843h-496v-843h496z" />
<glyph unicode="$" horiz-adv-x="1925" d="M741 -557l25 520q-369 37 -627 189l115 327q238 -176 528 -221l62 1163q-147 123 -234 205q-76 72 -186 203q-111 132 -156 262q-47 135 -47 285q0 310 201 493t508 207l24 447h271l-25 -459q201 -24 451 -127l-95 -287q-170 87 -372 119l-62 -1098q147 -123 238 -209 q77 -73 192 -211q111 -134 162 -274q51 -141 51 -305q0 -313 -200 -498q-202 -187 -533 -215l-28 -516h-263zM1397 659q0 258 -299 545l-49 -946q161 33 254 137q94 104 94 264zM590 2404q0 -247 278 -512l45 877q-141 -24 -233 -117q-90 -92 -90 -248z" />
<glyph unicode="%" horiz-adv-x="2527" d="M2290 2417l-1852 -2192l-196 209l1851 2196zM1204 2253q0 -238 -143 -420t-389 -182q-242 0 -379 176t-137 426q0 225 133 409q134 185 395 185q246 0 383 -158t137 -436zM926 2253q0 150 -70 246q-69 94 -176 94q-122 0 -182 -105t-60 -235q0 -147 62 -248 q61 -100 180 -100q122 0 184 102q62 103 62 246zM2363 545q0 -236 -137 -420q-136 -182 -387 -182q-242 0 -383 176q-141 175 -141 426q0 225 133 409q134 185 395 185q250 0 385 -156t135 -438zM2085 545q0 156 -68 248t-178 92q-121 0 -182 -103q-60 -102 -60 -237 q0 -146 62 -246q61 -98 180 -98q123 0 184 102q62 103 62 242z" />
<glyph unicode="&#x26;" horiz-adv-x="2252" d="M1819 2306q0 -106 -45 -211q-41 -95 -93 -176q-46 -71 -161 -174t-170 -146l-203 -153q90 -107 223 -250l234 -250l325 -336l344 -352l-229 -278l-336 348q-381 -381 -803 -381q-340 0 -520 198t-180 514q0 451 450 828q-221 332 -221 663q0 334 182 523q183 190 527 190 q307 0 491 -151q185 -152 185 -406zM946 221q245 0 557 320q-499 516 -639 680q-307 -279 -307 -545q0 -184 107 -320q106 -135 282 -135zM782 2175q0 -214 172 -471q121 81 197 139q72 54 154 131q82 76 120 154q37 75 37 158q0 144 -104 221q-105 78 -232 78h-11 q-147 0 -238 -113q-95 -118 -95 -297z" />
<glyph unicode="'" horiz-adv-x="745" d="M557 3076l-53 -680h-266l-50 676v418h369v-414z" />
<glyph unicode="(" horiz-adv-x="1118" d="M1155 -680l-246 -160q-667 929 -667 2204q0 388 55 715q56 330 166 608q113 284 205 455q101 187 245 417l238 -168q-101 -180 -186 -352q-76 -154 -177 -422q-101 -266 -153 -583q-53 -321 -53 -662q0 -1131 573 -2052z" />
<glyph unicode=")" horiz-adv-x="1101" d="M860 1364q0 -371 -49 -686q-50 -320 -154 -594q-108 -283 -196 -467q-92 -191 -248 -457l-246 164q277 513 412 952q137 446 137 1084q0 435 -88 829q-89 400 -182 613q-96 222 -283 598l258 159q303 -509 471 -1003q168 -495 168 -1192z" />
<glyph unicode="*" horiz-adv-x="1998" d="M1241 2204l-57 -787l581 299l111 -336l-647 -204l446 -611l-282 -209l-336 652l-312 -656l-286 205l430 619l-635 188l106 336l582 -279l-70 783h369z" />
<glyph unicode="+" horiz-adv-x="1998" d="M1798 1020h-639v-868h-319v868h-643v295h643v823h319v-823h639v-295z" />
<glyph unicode="," horiz-adv-x="909" d="M389 -668l-213 181q201 237 201 446q0 77 -53 162q-54 86 -54 166q0 81 56 137q55 55 145 55q124 0 195 -110q71 -109 71 -287q0 -369 -348 -750z" />
<glyph unicode="-" horiz-adv-x="1511" d="M1290 1192h-1081v291h1081v-291z" />
<glyph unicode="." horiz-adv-x="917" d="M721 184q0 -102 -68 -172q-67 -69 -161 -69q-102 0 -170 69q-68 70 -68 172t70 172t168 70q93 0 161 -70t68 -172z" />
<glyph unicode="/" horiz-adv-x="1372" d="M1389 3252l-1000 -3711l-311 99l995 3711z" />
<glyph unicode="0" horiz-adv-x="2170" d="M1987 1368q0 -275 -45 -512q-45 -234 -146 -448q-100 -210 -287 -334q-186 -123 -440 -123q-256 0 -440 125q-183 125 -275 338q-92 215 -131 436q-39 224 -39 477q0 267 47 510q45 235 150 453q102 214 291 338q190 125 442 125q206 0 363 -84q156 -83 252 -220 q92 -131 153 -321q59 -183 82 -371q23 -189 23 -389zM1634 1339q0 228 -26 410q-27 192 -86 356q-61 171 -170 265q-111 96 -262 96q-193 0 -322 -170t-176 -408q-47 -240 -47 -536q0 -1110 540 -1110q151 0 263 92q110 91 172 254q61 160 88 348q26 179 26 403z" />
<glyph unicode="1" horiz-adv-x="1323" d="M1004 0h-353v2294l-483 -279l-119 246l676 463h279v-2724z" />
<glyph unicode="2" horiz-adv-x="1732" d="M1565 0h-1454v225q444 521 735 983q289 458 289 824q0 212 -107 325t-303 113q-259 0 -516 -139l-86 266q328 164 651 164q360 0 539 -187q178 -185 178 -506q0 -214 -80 -456q-80 -241 -213 -461q-131 -217 -264 -403l-275 -367q-37 -43 -69 -86h975v-295z" />
<glyph unicode="3" horiz-adv-x="1679" d="M1397 2097q0 -459 -393 -676q245 -52 376 -262q131 -209 131 -500q0 -496 -329 -776t-850 -280q-138 0 -221 16v295q111 -12 241 -12q333 0 559 204q228 206 228 553q0 271 -158 424q-133 129 -408 129q-50 0 -106 -4l-164 -12l-12 270l164 13q261 24 419 176t158 393 q0 205 -114 307q-115 103 -304 103q-219 0 -442 -91l-78 279q291 102 565 102q338 0 537 -165q201 -167 201 -486z" />
<glyph unicode="4" horiz-adv-x="1744" d="M745 2855h336l-659 -1921h672l49 926h270v-926h291v-287h-291v-647h-328v647h-970l-74 234z" />
<glyph unicode="5" horiz-adv-x="1687" d="M618 2433l-40 -819q118 12 192 12q352 0 567 -213t215 -659q0 -550 -317 -840q-318 -291 -858 -291q-124 0 -193 12v299q76 -16 185 -16q372 0 596 221q223 220 223 615q0 602 -557 602q-198 0 -381 -49l69 1396h1160v-270h-861z" />
<glyph unicode="6" horiz-adv-x="2093" d="M1708 2757q-100 13 -191 13q-362 0 -577 -208q-268 -259 -334 -874q235 155 516 155q369 0 566 -244q196 -242 196 -673q0 -435 -223 -709t-604 -274q-168 0 -303 57q-134 57 -224 160q-86 99 -149 225q-60 120 -94 277q-33 153 -45 288q-13 146 -13 279 q0 1839 1254 1839q143 0 217 -12zM1049 1569q-193 0 -463 -168v-168q0 -1000 479 -1000q221 0 336 193q115 194 115 487q0 656 -467 656z" />
<glyph unicode="7" horiz-adv-x="1470" d="M1024 2413h-1036v290h1401l32 -204l-905 -2823h-369z" />
<glyph unicode="8" horiz-adv-x="1974" d="M172 717q0 478 508 880q-426 327 -426 746q0 335 217 536t524 201q304 0 518 -190q216 -192 216 -510q0 -236 -132 -445q-129 -205 -315 -350q248 -174 383 -364q137 -193 137 -492q0 -377 -237 -582q-235 -204 -578 -204q-340 0 -577 207q-238 208 -238 567zM1458 717 q0 221 -137 373q-132 146 -408 335q-393 -336 -393 -675q0 -225 135 -375t332 -150q192 0 332 137q139 136 139 355zM598 2363q0 -201 113 -338t325 -276q348 275 348 602q0 186 -118 320q-118 135 -283 135q-159 0 -272 -125t-113 -318z" />
<glyph unicode="9" horiz-adv-x="2093" d="M369 -61q100 -13 191 -13q358 0 573 207q267 258 333 871q-235 -152 -512 -152q-368 0 -565 244q-196 242 -196 673q0 435 223 709q224 275 604 275q166 0 303 -58q133 -56 223 -160q88 -102 150 -225q61 -121 94 -276q33 -152 45 -289q12 -135 12 -279 q0 -1839 -1253 -1839q-137 0 -217 13zM1028 1126q196 0 459 168q4 47 4 168q0 1000 -479 1000q-221 0 -336 -193q-115 -194 -115 -487q0 -656 467 -656z" />
<glyph unicode=":" horiz-adv-x="1044" d="M799 184q0 -102 -68 -172q-67 -69 -162 -69q-103 0 -170 69q-67 68 -67 172q0 103 69 172q70 70 168 70q94 0 162 -70t68 -172zM799 2023q0 -102 -68 -172q-67 -69 -162 -69q-103 0 -170 69q-67 68 -67 172q0 103 69 172q70 70 168 70q94 0 162 -70t68 -172z" />
<glyph unicode=";" horiz-adv-x="1044" d="M496 -668l-213 181q200 236 200 446q0 77 -53 162t-53 166q0 82 55 137t146 55q123 0 194 -110q72 -111 72 -287q0 -369 -348 -750zM799 2023q0 -102 -68 -172q-67 -69 -162 -69q-103 0 -170 69q-67 68 -67 172q0 103 69 172q70 70 168 70q94 0 162 -70t68 -172z" />
<glyph unicode="&#x3c;" horiz-adv-x="1810" d="M1368 2339l193 -221l-893 -947l888 -946l-184 -229l-1139 1175z" />
<glyph unicode="=" horiz-adv-x="1998" d="M1798 1417h-1601v295h1601v-295zM1798 627h-1601v295h1601v-295z" />
<glyph unicode="&#x3e;" horiz-adv-x="1998" d="M532 2339l1135 -1168l-1147 -1175l-176 229l877 946l-885 951z" />
<glyph unicode="?" horiz-adv-x="1609" d="M602 885v241q0 198 51 357q51 160 125 268q72 105 148 205q75 98 125 207q51 111 51 233q0 165 -88 250q-89 86 -236 86q-201 0 -446 -172l-119 250q316 209 635 209q320 0 467 -172q147 -173 147 -430q0 -187 -80 -361q-78 -169 -176 -284q-96 -113 -176 -289 q-80 -177 -80 -377v-221h-348zM1012 184q0 -103 -66 -172t-164 -69t-166 69q-67 68 -67 172t67 172q68 70 166 70q97 0 164 -70q66 -69 66 -172z" />
<glyph unicode="@" horiz-adv-x="3514" d="M1618 -45q-204 0 -344 147t-197 355q-57 207 -57 444q0 515 246 868t614 353q245 0 520 -176v-1291q0 -438 201 -438q164 0 248 270t84 676q0 668 -279 1073q-280 406 -799 406q-552 0 -917 -434t-365 -1217q0 -707 316 -1155q314 -446 909 -446q370 0 688 139l82 -266 q-382 -140 -790 -140q-730 0 -1129 512q-399 511 -399 1344q0 877 444 1405t1137 528q631 0 1030 -450t399 -1250q0 -238 -36 -438q-38 -208 -117 -399q-79 -190 -228 -305q-148 -115 -348 -115q-181 0 -266 90q-87 91 -115 258q-83 -157 -221 -252q-139 -96 -311 -96z M2081 606v1196q-101 58 -205 58q-245 0 -385 -267q-139 -265 -139 -647q0 -307 96 -514t264 -207q118 0 225 111t144 270z" />
<glyph unicode="A" horiz-adv-x="2170" d="M1782 0l-258 881h-918l-250 -881h-352l864 3027h398l901 -3027h-385zM1057 2707l-377 -1544h766z" />
<glyph unicode="B" horiz-adv-x="2142" d="M2036 860q0 -483 -258 -672q-257 -188 -746 -188h-651v3027h663q893 0 893 -758q0 -463 -352 -647q451 -206 451 -762zM1663 864q0 586 -647 586h-287v-1163h324q307 0 458 127q152 128 152 450zM1565 2249q0 491 -529 491h-307v-1020h246q590 0 590 529z" />
<glyph unicode="C" horiz-adv-x="1896" d="M1827 365l41 -299q-277 -115 -586 -115q-1110 0 -1110 1540q0 1589 1135 1589q285 0 557 -98l-62 -295q-52 28 -200 63q-149 35 -291 35q-770 0 -770 -1253q0 -1286 749 -1286q270 0 537 119z" />
<glyph unicode="D" horiz-adv-x="2490" d="M2306 1536q0 -262 -33 -477q-34 -220 -116 -418q-84 -202 -220 -340q-135 -137 -354 -219q-218 -82 -510 -82h-696v3027h713q1216 0 1216 -1491zM1942 1520q0 274 -39 479q-39 203 -134 379t-276 266q-184 92 -444 92h-324v-2445h369q211 0 362 65q156 67 246 172 q91 106 147 271q56 166 74 331q19 177 19 390z" />
<glyph unicode="E" horiz-adv-x="2039" d="M1917 0h-1540v3027h1466v-291h-1118v-1016h1008v-286h-1008v-1143h1192v-291z" />
<glyph unicode="F" horiz-adv-x="1777" d="M1794 2736h-1069v-1114h938v-287h-938v-1335h-348v3027h1417v-291z" />
<glyph unicode="G" horiz-adv-x="2424" d="M2179 1372v-1208q-371 -217 -840 -217q-305 0 -524 110q-222 112 -352 318q-132 210 -193 475q-61 266 -61 608q0 754 299 1188t905 434q336 0 717 -135l-78 -291q-316 131 -647 131q-827 0 -827 -1290q0 -1253 782 -1253q248 0 483 110v1020h336z" />
<glyph unicode="H" horiz-adv-x="2646" d="M2269 0h-352v1446h-1184v-1446h-352v3027h352v-1290h1184v1290h352v-3027z" />
<glyph unicode="I" horiz-adv-x="1105" d="M725 0h-344v3027h344v-3027z" />
<glyph unicode="J" horiz-adv-x="1314" d="M971 3027v-1851q0 -283 -45 -490q-44 -203 -115 -334q-67 -125 -199 -221q-130 -95 -247 -141q-130 -51 -316 -105l-65 299q140 45 227 88q86 42 176 117q87 73 133 176t74 256q29 156 29 367v1839h348z" />
<glyph unicode="K" horiz-adv-x="2211" d="M2167 3027l-893 -1278l995 -1749h-450l-762 1470l-328 -475v-995h-352v3027h352v-1544l983 1544h455z" />
<glyph unicode="L" horiz-adv-x="1875" d="M1855 0h-1478v3027h348v-2724h1130v-303z" />
<glyph unicode="M" horiz-adv-x="3084" d="M2839 0h-357l-115 2314l-741 -2314h-201l-745 2314l-119 -2314h-311l172 3027h340l778 -2392l795 2392h327z" />
<glyph unicode="N" horiz-adv-x="2727" d="M2351 0h-258l-1380 2318v-2318h-336v3027h270l1372 -2286v2286h332v-3027z" />
<glyph unicode="O" horiz-adv-x="2555" d="M2376 1573q0 -1626 -1131 -1626q-1065 0 -1065 1507q0 321 56 598q55 274 180 514q125 241 352 377q229 137 539 137q299 0 514 -123q214 -123 331 -342q118 -221 170 -477q54 -265 54 -565zM2007 1556q0 1233 -721 1233q-741 0 -741 -1319q0 -1232 717 -1232 q745 0 745 1318z" />
<glyph unicode="P" horiz-adv-x="2097" d="M1982 2093q0 -468 -239 -723q-240 -256 -686 -256q-220 0 -332 37v-1151h-352v3027h647q962 0 962 -934zM1606 2060q0 336 -144 506t-479 170h-258v-1298q126 -37 291 -37q316 0 452 166q138 168 138 493z" />
<glyph unicode="Q" horiz-adv-x="2568" d="M2376 1573q0 -1253 -680 -1544q200 -68 618 -228l561 -211q198 -71 449 -127q256 -57 477 -57q204 0 520 41l-20 -274q-278 -37 -529 -37q-279 0 -616 80q-338 80 -588 178l-696 274q-480 190 -737 283q-955 74 -955 1503q0 321 56 598q55 274 180 514q125 241 352 377 q229 137 539 137q299 0 514 -123q214 -123 331 -342q118 -221 170 -477q54 -265 54 -565zM2007 1556q0 1233 -721 1233q-741 0 -741 -1319q0 -1232 717 -1232q745 0 745 1318z" />
<glyph unicode="R" horiz-adv-x="2170" d="M377 3027h602q502 0 743 -199q240 -198 240 -628q0 -623 -496 -832l586 -1368h-418l-487 1278q-139 -23 -323 -23q-48 0 -99 2v-1257h-348v3027zM725 2732v-1192q51 -2 98 -2q131 0 234 16q144 22 272 88q130 67 199 203q69 137 69 338q0 300 -151 430q-143 123 -437 123 h-34z" />
<glyph unicode="S" horiz-adv-x="1859" d="M1606 2941l-82 -291q-270 135 -541 135q-193 0 -321 -98q-130 -100 -130 -299q0 -151 91 -289q89 -136 225 -235l295 -222q178 -138 295 -243q136 -122 225 -305q90 -184 90 -406q0 -365 -246 -551t-614 -186q-435 0 -795 192l103 328q348 -225 696 -225q222 0 356 116 q136 118 136 322q0 161 -91 307q-90 144 -225 246l-295 223q-172 132 -295 238q-135 117 -225 291t-90 378q0 345 229 529t570 184q297 0 639 -139z" />
<glyph unicode="T" horiz-adv-x="1843" d="M1917 2732h-827v-2732h-349v2732h-815v295h1991v-295z" />
<glyph unicode="U" horiz-adv-x="2572" d="M2216 3027v-2089q0 -443 -229 -717t-721 -274q-488 0 -699 270q-211 269 -211 713v2097h353v-2023q0 -369 129 -558q128 -188 452 -188q323 0 451 199q127 197 127 555v2015h348z" />
<glyph unicode="V" horiz-adv-x="2125" d="M2167 3027l-996 -3027h-213l-999 3027h385l729 -2413l725 2413h369z" />
<glyph unicode="W" horiz-adv-x="3125" d="M3056 3027l-512 -3027h-275l-708 2433l-713 -2433h-275l-507 3027h372l348 -2355l652 2355h278l651 -2355l353 2355h336z" />
<glyph unicode="X" horiz-adv-x="2015" d="M1622 0l-631 1290l-618 -1290h-393l790 1577l-733 1450h422l573 -1180l549 1180h393l-741 -1450l811 -1577h-422z" />
<glyph unicode="Y" horiz-adv-x="1949" d="M2011 3027l-860 -2036v-991h-348v983l-869 2044h398l651 -1675l664 1675h364z" />
<glyph unicode="Z" horiz-adv-x="1814" d="M1815 0h-1770l-45 246l1356 2478h-1245v303h1646l45 -225l-1356 -2499h1369v-303z" />
<glyph unicode="[" horiz-adv-x="1224" d="M1130 -541h-806v4105h806v-271h-503v-3563h503v-271z" />
<glyph unicode="\" horiz-adv-x="1138" d="M860 -459l-995 3724l319 102l1000 -3727z" />
<glyph unicode="]" horiz-adv-x="1220" d="M897 -541h-803v271h500v3563h-500v271h803v-4105z" />
<glyph unicode="^" horiz-adv-x="1945" d="M1933 1262h-385l-585 1466l-578 -1466h-385l807 1855h319z" />
<glyph unicode="_" horiz-adv-x="1757" d="M1720 -319h-1691v266h1691v-266z" />
<glyph unicode="`" horiz-adv-x="499" d="M-143 3080l311 168l385 -639l-229 -110z" />
<glyph unicode="a" horiz-adv-x="1855" d="M1577 0h-291l-37 213q-10 -6 -71 -51q-65 -48 -86 -62l-18.5 -11l-31.5 -18.5l-36 -21.5q-54 -32 -105 -51q-32 -12 -104 -29q-59 -14 -125 -14q-238 0 -365 168q-127 167 -127 422q0 232 142 379q140 144 354 200q217 57 516 64v418q0 213 -74 299t-225 86 q-218 0 -533 -156l-77 266q421 160 659 160q321 0 457 -166q137 -167 137 -481v-991q0 -187 41 -623zM1196 418v553q-123 -5 -192 -10q-76 -6 -183 -31q-99 -24 -164 -64q-63 -39 -108 -112q-45 -74 -45 -172q0 -168 78 -269q78 -100 213 -100q132 0 401 205z" />
<glyph unicode="b" horiz-adv-x="2093" d="M1880 1163q0 -561 -207 -891q-206 -329 -661 -329q-367 0 -680 200v3183h348v-1180q220 123 483 123q358 0 537 -284q180 -285 180 -822zM1516 1143q0 415 -103 626q-102 209 -336 209q-233 0 -397 -123v-1527q131 -95 340 -95q496 0 496 910z" />
<glyph unicode="c" horiz-adv-x="1642" d="M1479 352l73 -270q-230 -123 -544 -123q-390 0 -592 289q-203 290 -203 846q0 577 217 866t623 289q290 0 491 -99l-74 -290q-187 110 -401 110q-496 0 -496 -835q0 -428 132 -662q131 -231 368 -231q190 0 406 110z" />
<glyph unicode="d" horiz-adv-x="2097" d="M1765 3326v-3248q-385 -135 -725 -135q-823 0 -823 1147q0 519 207 849t649 330q162 0 344 -53v1110h348zM1417 291v1601q-145 86 -348 86q-491 0 -491 -876q0 -873 479 -873q191 0 360 62z" />
<glyph unicode="e" horiz-adv-x="1884" d="M1700 1102h-1168q5 -461 125 -668q122 -209 404 -209q219 0 528 160l82 -266q-335 -172 -639 -172q-434 0 -624 297q-191 298 -191 841q0 1176 799 1176q700 0 700 -930q0 -137 -16 -229zM999 2011q-412 0 -462 -680h852v33q0 314 -82 477q-86 170 -308 170z" />
<glyph unicode="f" horiz-adv-x="1179" d="M1495 3297l-74 -262q-189 78 -352 78q-200 0 -272 -107q-72 -106 -72 -368v-430h479v-262h-479v-1946h-348v1946h-254v262h254v430q0 385 149 567t494 182q238 0 475 -90z" />
<glyph unicode="g" horiz-adv-x="1847" d="M922 2269q173 0 307 -61q144 218 260 344q117 127 244 160l106 -271q-247 -66 -422 -373q180 -208 180 -573q0 -385 -186 -569q-187 -185 -493 -185q-101 0 -181 17q-49 -85 -49 -189q0 -123 111 -202q113 -81 266 -131q154 -50 313 -117t269 -211t110 -367 q0 -151 -51 -268q-50 -115 -131 -188q-80 -72 -193 -119q-116 -48 -225 -64t-235 -16q-362 0 -572 149q-211 150 -211 449q0 82 21 160q22 80 39 131q18 51 71 129q49 72 74 100l92 105q73 80 80 92q-110 122 -110 311q0 157 118 332q-270 184 -270 651q0 395 182 584 q183 190 486 190zM1430 -492q0 107 -44 187q-44 81 -129 133q-90 55 -167 86q-67 27 -201 76q-129 47 -189 80q-136 -166 -204 -285q-62 -109 -62 -240q0 -204 133 -309q132 -104 355 -104q216 0 362 90t146 286zM1294 1495q0 520 -376 520q-365 0 -365 -516 q0 -508 373 -508q368 0 368 504z" />
<glyph unicode="h" horiz-adv-x="2166" d="M1851 0h-348v1507q0 447 -278 447q-229 0 -545 -287v-1667h-348v3330h348l-12 -1368q370 299 684 299q499 0 499 -696v-1565z" />
<glyph unicode="i" horiz-adv-x="1052" d="M705 0h-353v2208h353v-2208zM750 2920q0 -101 -66 -167t-160 -66q-98 0 -159 66q-62 67 -62 167q0 101 64 170q63 68 157 68t160 -68t66 -170z" />
<glyph unicode="j" horiz-adv-x="1052" d="M356 2208h349v-2147q0 -478 -160 -694q-159 -215 -623 -317l-65 282q185 48 288 113q101 63 156 207q55 143 55 389v2167zM754 2920q0 -101 -66 -167t-160 -66q-98 0 -159 66q-62 67 -62 167q0 101 64 170q63 68 157 68t160 -68t66 -170z" />
<glyph unicode="k" horiz-adv-x="1871" d="M1819 2208l-709 -942l770 -1266h-426l-553 987l-233 -315v-672h-336v3326h348v-1651l-12 -561l729 1094h422z" />
<glyph unicode="l" horiz-adv-x="1032" d="M692 0h-352v3326h352v-3326z" />
<glyph unicode="m" horiz-adv-x="3284" d="M1823 0h-348v1556q0 221 -62 310q-61 88 -196 88q-234 0 -537 -291v-1663h-348v2208h311l25 -254q187 152 348 231q155 76 332 76q348 0 438 -319q388 319 708 319q230 0 351 -143t121 -496v-1622h-349v1556q0 222 -61 310t-197 88q-125 0 -250 -70q-122 -68 -286 -225 v-37v-1622z" />
<glyph unicode="n" horiz-adv-x="2166" d="M1847 0h-348v1556q0 222 -63 310t-203 88q-238 0 -553 -291v-1663h-348v2208h311l25 -254q191 152 356 231q158 76 344 76q234 0 356 -143q123 -144 123 -496v-1622z" />
<glyph unicode="o" horiz-adv-x="2088" d="M213 1081q0 536 209 858t647 322q807 0 807 -1126q0 -549 -207 -869q-207 -319 -637 -319q-417 0 -618 307q-201 308 -201 827zM569 1098q0 -869 471 -869q480 0 480 897q0 856 -467 856q-484 0 -484 -884z" />
<glyph unicode="p" horiz-adv-x="2093" d="M332 -1110v3248q386 135 725 135q823 0 823 -1147q0 -520 -207 -850q-206 -329 -649 -329q-162 0 -344 53v-1110h-348zM680 1925v-1601q145 -86 348 -86q492 0 492 876q0 873 -480 873q-191 0 -360 -62z" />
<glyph unicode="q" horiz-adv-x="2097" d="M225 1053q0 561 207 891q206 329 662 329q367 0 680 -200v-3183h-349v1180q-221 -123 -483 -123q-357 0 -536 284q-181 287 -181 822zM590 1073q0 -419 102 -627t336 -208q235 0 397 122v1528q-130 94 -340 94q-495 0 -495 -909z" />
<glyph unicode="r" horiz-adv-x="1544" d="M1430 2249l-21 -320q-30 3 -59 3q-181 0 -332 -113q-173 -130 -342 -492v-1327h-344v2208h344v-455q162 277 325 399q135 101 343 101q42 0 86 -4z" />
<glyph unicode="s" horiz-adv-x="1560" d="M852 2273q206 0 487 -94l-65 -283q-234 99 -385 99t-240 -78q-88 -78 -88 -217q0 -129 88 -230q89 -102 215 -184l254 -172q126 -89 215 -237q88 -146 88 -340q0 -295 -184 -445q-183 -149 -479 -149q-325 0 -598 127l86 290q244 -143 479 -143q163 0 252 84 q88 84 88 227q0 133 -88 240q-91 112 -215 193l-254 174q-126 89 -215 229q-88 139 -88 315q0 283 184 439q183 155 463 155z" />
<glyph unicode="t" horiz-adv-x="1273" d="M1225 319l61 -286q-174 -86 -422 -86q-291 0 -405 141q-115 142 -115 477v1381h-254v262h254v733l348 86v-819h508v-262h-508v-1336q0 -195 53 -280q53 -84 185 -84q156 0 295 73z" />
<glyph unicode="u" horiz-adv-x="2166" d="M324 2208h348v-1557q0 -221 63 -307t203 -86q245 0 553 287v1663h348v-2208h-311l-25 250q-203 -158 -358 -230q-156 -73 -338 -73q-234 0 -358 143q-125 145 -125 500v1618z" />
<glyph unicode="v" horiz-adv-x="1835" d="M1802 2208l-741 -2208h-279l-749 2208h393l512 -1737l487 1737h377z" />
<glyph unicode="w" horiz-adv-x="2699" d="M2621 2208l-507 -2208h-238l-516 1712l-520 -1712h-238l-524 2208h356l336 -1651l479 1651h238l483 -1647l316 1647h335z" />
<glyph unicode="x" horiz-adv-x="1753" d="M479 2208l471 -852l357 852h372l-528 -1110l-57 -4l606 -1094h-402l-471 848l-352 -852h-373l525 1110h57l-606 1102h401z" />
<glyph unicode="y" horiz-adv-x="1781" d="M1769 2208l-704 -2396q-119 -408 -309 -605q-190 -198 -527 -333l-127 282q253 114 400 273q146 158 231 436l66 213l-131 8l-639 2122h381l503 -1880l496 1880h360z" />
<glyph unicode="z" horiz-adv-x="1576" d="M1475 0h-1336l-12 217l926 1720h-873v271h1254l24 -217l-930 -1717h947v-274z" />
<glyph unicode="{" horiz-adv-x="1183" d="M1032 -311l-53 -234q-129 45 -209 86q-77 40 -158 121q-79 79 -114 215q-35 137 -35 336v561q0 337 -88 494q-89 158 -277 186v205q365 50 365 590v688q0 320 155 471q156 152 361 168l37 -234q-258 -12 -258 -454v-643q0 -512 -299 -680q131 -62 215 -252 q84 -191 84 -441v-696q0 -213 61 -319q61 -107 213 -168z" />
<glyph unicode="|" horiz-adv-x="1040" d="M688 -438h-332v3764h332v-3764z" />
<glyph unicode="}" horiz-adv-x="1183" d="M152 3346l61 234q133 -46 205 -84t153 -119t115 -215q35 -137 35 -336v-561q0 -338 88 -496q89 -160 272 -188v-205q-159 -24 -260 -170q-100 -145 -100 -420v-684q0 -320 -156 -473q-157 -154 -356 -166l-37 234q262 12 262 450v644q0 511 295 679q-131 66 -213 254 t-82 443v692q0 214 -65 319q-66 107 -217 168z" />
<glyph unicode="~" horiz-adv-x="1789" d="M1585 1413l103 -242q-220 -229 -488 -229q-144 0 -328 121t-319 121q-197 0 -356 -144l-91 242q238 209 476 209q165 0 356 -121t291 -121q150 0 356 164z" />
<glyph unicode="&#xa1;" horiz-adv-x="892" d="M291 -819l28 2126h328l33 -2126h-389zM741 2015q0 -104 -67 -172q-68 -69 -162 -69q-102 0 -170 69q-68 70 -68 172t70 172t168 70q94 0 162 -70q67 -68 67 -172z" />
<glyph unicode="&#xa2;" horiz-adv-x="1679" d="M1503 365l78 -291q-200 -106 -397 -127v-496h-303v512q-323 66 -496 369q-172 302 -172 778q0 479 176 772t492 367v491h303v-475q180 -17 393 -123l-86 -299q-205 135 -406 135q-236 0 -370 -215q-133 -214 -133 -624q0 -419 135 -662q136 -244 381 -244q202 0 405 132z " />
<glyph unicode="&#xa3;" horiz-adv-x="1830" d="M1278 1499h-463v-434q0 -317 -35 -500q-34 -180 -141 -282h1090v-283h-1536l-29 221q192 152 254 338q61 184 61 522v418h-311v275h311v442q0 365 195 608q196 244 530 244q264 0 541 -115l-90 -274q-195 98 -406 98t-323 -154q-111 -153 -111 -415v-434h463v-275z" />
<glyph unicode="&#xa4;" horiz-adv-x="2072" d="M1610 1724h-807q-4 -59 -4 -204q0 -100 4 -140h807v-262h-791q49 -416 203 -651q153 -234 420 -234q197 0 438 127l90 -286q-309 -131 -557 -131q-434 0 -674 315t-297 860h-262v262h242v115q0 160 4 229h-246v271h275q78 495 319 790t672 295q245 0 500 -119l-95 -295 q-202 119 -389 119q-521 0 -635 -790h783v-271z" />
<glyph unicode="&#xa5;" horiz-adv-x="2027" d="M1950 3027l-553 -1266h438v-266h-553l-131 -299h684v-266h-659v-934h-353v934h-659v266h696l-127 299h-569v266h442l21 -24l-549 1290h368l562 -1528l565 1528h377z" />
<glyph unicode="&#xa6;" horiz-adv-x="1040" d="M356 1208h332v-1646h-332v1646zM688 1790h-332v1540h332v-1540z" />
<glyph unicode="&#xa7;" horiz-adv-x="1916" d="M1737 991q0 -343 -373 -585q184 -233 184 -484q0 -275 -188 -418t-496 -143q-344 0 -557 102l94 254q163 -90 435 -90q376 0 376 287q0 140 -102 281q-99 137 -250 268l-293 260q-148 136 -248 305q-102 172 -102 356q0 349 369 586q-209 259 -209 524q0 263 180 416 q181 154 500 154q278 0 512 -90l-90 -246q-142 65 -402 65q-177 0 -280 -75q-105 -76 -105 -215q0 -138 109 -285q106 -143 260 -274l305 -269q157 -143 262 -317q109 -180 109 -367zM1413 995q0 84 -35 168t-110 166q-82 90 -142 146q-69 64 -182 157q-103 85 -178 154 q-217 -196 -217 -389q0 -113 67 -226q69 -117 129 -178q49 -50 222 -202l209 -185q237 184 237 389z" />
<glyph unicode="&#xa8;" horiz-adv-x="1228" d="M422 2867q0 -93 -60 -155t-145 -62q-99 0 -160 60t-61 157q0 103 61 164t160 61q85 0 145 -63t60 -162zM1221 2867q0 -97 -62 -157q-61 -60 -160 -60q-85 0 -145 60q-59 59 -59 157q0 99 57 162t147 63q95 0 158 -63q64 -64 64 -162z" />
<glyph unicode="&#xa9;" horiz-adv-x="4161" d="M3883 1229q0 -598 -221 -1088q-220 -488 -637 -780q-415 -291 -944 -291q-527 0 -942 287q-413 286 -637 776q-223 488 -223 1096q0 593 221 1083q220 488 637 780q415 291 944 291t944 -291q417 -292 637 -780q221 -490 221 -1083zM3572 1225q0 514 -185 940 q-184 424 -530 674q-344 249 -780 249q-435 0 -779 -252q-344 -253 -528 -675q-184 -423 -184 -936q0 -801 415 -1334q415 -534 1076 -534q658 0 1077 539q418 538 418 1329zM2662 397l99 -278q-304 -176 -688 -176q-431 0 -707 348t-276 966q0 562 286 887q287 326 697 326 q339 0 667 -176l-98 -287q-171 94 -283 133q-111 39 -241 39q-105 0 -217 -47q-113 -47 -218 -145q-106 -99 -172 -289q-65 -188 -65 -441q0 -266 70 -481q68 -209 174 -321t208 -166q106 -56 195 -56q162 0 279 37q118 37 290 127z" />
<glyph unicode="&#xaa;" horiz-adv-x="1331" d="M1167 930h-1040v274h1040v-274zM1151 1479h-258l-21 176q-12 -12 -65 -58q-48 -42 -80 -63q-23 -14 -70 -45t-86 -41q-37 -10 -84 -10q-179 0 -278 123q-98 122 -98 311q0 278 186 391q188 114 543 121v172q0 295 -209 295q-157 0 -398 -127l-61 233q311 127 516 127 q233 0 338 -147q104 -146 104 -369v-713q0 -101 21 -376zM840 1855v345q-455 -8 -455 -308q0 -217 156 -217q127 0 299 180z" />
<glyph unicode="&#xab;" horiz-adv-x="1896" d="M569 1114l439 -856l-254 -65l-574 921l574 926l250 -78zM1675 360l-250 -73l-520 827l525 815l241 -78l-373 -733z" />
<glyph unicode="&#xac;" horiz-adv-x="2174" d="M1716 1233h-1560v287h1851v-1102h-287z" />
<glyph unicode="&#xad;" horiz-adv-x="1511" d="M1294 1192h-1081v291h1081v-291z" />
<glyph unicode="&#xae;" horiz-adv-x="4161" d="M3883 1229q0 -598 -221 -1088q-220 -488 -637 -780q-415 -291 -944 -291q-527 0 -942 287q-413 286 -637 776q-223 488 -223 1096q0 593 221 1083q220 488 637 780q415 291 944 291t944 -291q417 -292 637 -780q221 -490 221 -1083zM3572 1225q0 514 -185 940 q-184 424 -530 674q-344 249 -780 249q-435 0 -779 -252q-344 -253 -528 -675q-184 -423 -184 -936q0 -801 415 -1334q415 -534 1076 -534q658 0 1077 539q418 538 418 1329zM2765 1733q0 -454 -410 -639l496 -1098h-348l-418 1020q-121 -20 -237 -20q-48 0 -95 3v-1003 h-311v2433h512q438 0 624 -211q187 -213 187 -485zM2445 1716q0 212 -123 334q-122 121 -446 121h-123v-934h13q679 0 679 479z" />
<glyph unicode="&#xaf;" horiz-adv-x="1130" d="M1126 2589h-1118v245h1118v-245z" />
<glyph unicode="&#xb0;" horiz-adv-x="1552" d="M1343 2695q0 -275 -167 -463t-410 -188q-246 0 -410 186q-163 185 -163 465q0 271 167 459t406 188q243 0 410 -188t167 -459zM1085 2695q0 177 -94 295q-95 119 -225 119q-132 0 -223 -121q-92 -122 -92 -293q0 -175 92 -297q91 -121 223 -121q131 0 225 121t94 297z " />
<glyph unicode="&#xb1;" horiz-adv-x="1998" d="M1798 1282h-639v-790h-319v790h-643v287h643v807h319v-807h639v-287zM1798 0h-1601v295h1601v-295z" />
<glyph unicode="&#xb2;" horiz-adv-x="1167" d="M1102 1352h-991l-21 159l299 357q95 114 225 348q131 235 131 389q0 225 -204 225q-173 0 -357 -106l-69 229q241 127 471 127q226 0 344 -114q119 -114 119 -336q0 -410 -582 -1053h635v-225z" />
<glyph unicode="&#xb3;" horiz-adv-x="1048" d="M1004 1851q0 -267 -162 -403q-163 -137 -445 -137q-170 0 -336 49l62 242q154 -58 266 -58q140 0 225 76q86 77 86 219q0 299 -348 299h-139l-4 205h90q135 0 236 74q100 73 100 213q0 95 -55 147q-56 53 -150 53q-124 0 -266 -77l-78 217q218 102 410 102 q200 0 327 -100t127 -293q0 -254 -217 -393q271 -102 271 -435z" />
<glyph unicode="&#xb4;" horiz-adv-x="499" d="M-70 2589l381 663l275 -155l-451 -611z" />
<glyph unicode="&#xb5;" d="M303 -1118v3326h352v-1598q76 -164 187 -272q108 -105 227 -105q159 0 277 177q116 174 116 454v1344h348v-1540q0 -304 41 -668h-311q-13 129 -20 254q-163 -311 -426 -311q-259 0 -439 225v-1286h-352z" />
<glyph unicode="&#x3bc;" d="M303 -1118v3326h352v-1598q76 -164 187 -272q108 -105 227 -105q159 0 277 177q116 174 116 454v1344h348v-1540q0 -304 41 -668h-311q-13 129 -20 254q-163 -311 -426 -311q-259 0 -439 225v-1286h-352z" />
<glyph unicode="&#xb6;" horiz-adv-x="2211" d="M1565 -324v3515h-353q-376 0 -594 -170q-217 -169 -217 -522q0 -185 78 -320q79 -136 209 -205q133 -70 268 -100q141 -31 289 -31v-2167h-327v1893q-423 53 -644 311q-221 259 -221 598q0 454 275 727q274 273 856 273h717v-3802h-336z" />
<glyph unicode="&#xb7;" horiz-adv-x="983" d="M754 1421q0 -102 -68 -172q-68 -69 -162 -69q-102 0 -170 69q-67 68 -67 172q0 103 69 172q70 70 168 70q94 0 162 -70t68 -172z" />
<glyph unicode="&#xb8;" horiz-adv-x="1011" d="M647 8l-41 -291q381 -78 381 -393q0 -201 -141 -291t-350 -90q-137 0 -283 41l49 189q117 -37 213 -37q262 0 262 205q0 106 -86 157q-87 52 -266 64l53 446h209z" />
<glyph unicode="&#xb9;" horiz-adv-x="1015" d="M795 1343h-291l4 1381l-373 -213l-82 209l508 344h234v-1721z" />
<glyph unicode="&#xba;" horiz-adv-x="1527" d="M1376 930h-1204v274h1204v-274zM123 2265q0 89 16 182q17 96 60 213q44 120 110 207q67 89 183 152q113 61 262 61q188 0 319 -84q132 -85 189 -221q55 -132 77 -254q21 -117 21 -240q0 -128 -29 -264q-28 -131 -92 -268q-63 -135 -197 -219t-313 -84q-180 0 -307 82 q-128 83 -189 217q-63 137 -86 262q-24 127 -24 258zM442 2273q0 -86 11 -176q11 -86 39 -182q28 -95 92 -156q62 -59 157 -59q96 0 158 59q64 61 94 156q32 101 43 182q13 93 13 176q0 75 -13 164q-11 77 -41 176q-28 94 -94 154q-65 59 -156 59q-119 0 -192 -104 q-74 -106 -92 -217q-19 -119 -19 -232z" />
<glyph unicode="&#xbb;" horiz-adv-x="1900" d="M893 1970l254 70l573 -926l-577 -921l-250 73l438 848zM221 1868l250 74l520 -828l-520 -815l-246 78l373 733z" />
<glyph unicode="&#xbc;" horiz-adv-x="2547" d="M766 1343h-291l4 1381l-373 -213l-81 209l507 344h234v-1721zM1839 1745h283l-422 -1135h373l57 553h184l4 -553h185v-237h-185v-373h-286v373h-562l-69 200zM2331 2806l-1811 -2700l-221 201l1819 2708z" />
<glyph unicode="&#xbd;" horiz-adv-x="2699" d="M2298 2806l-1811 -2700l-221 201l1819 2708zM2650 0h-991l-21 164q400 464 529 692q131 235 131 397q0 226 -209 226q-171 0 -356 -107l-66 234q241 123 467 123q467 0 467 -451q0 -417 -578 -1049h627v-229zM766 1343h-291l4 1381l-373 -213l-81 209l507 344h234v-1721z " />
<glyph unicode="&#xbe;" horiz-adv-x="2625" d="M2400 2806l-1810 -2700l-221 201l1818 2708zM1004 1851q0 -267 -162 -403q-163 -137 -445 -137q-170 0 -336 49l62 242q154 -58 266 -58q140 0 225 76q86 77 86 219q0 299 -348 299h-139l-4 205h90q135 0 236 74q100 73 100 213q0 95 -55 147q-56 53 -150 53 q-124 0 -266 -77l-78 217q218 102 410 102q200 0 327 -100t127 -293q0 -254 -217 -393q271 -102 271 -435zM1937 1745h287l-422 -1135h373l53 553h189v-553h188v-237h-188v-373h-283v373h-561l-70 200z" />
<glyph unicode="&#xbf;" horiz-adv-x="1609" d="M1073 1323v-242q0 -197 -51 -356q-51 -160 -125 -268q-80 -117 -147 -205q-75 -98 -125 -207q-52 -113 -52 -233q0 -164 89 -250t235 -86q201 0 446 172l119 -250q-316 -209 -635 -209q-320 0 -467 172q-147 173 -147 430q0 187 80 361q78 169 176 284q96 113 176 289 q80 177 80 377v221h348zM664 2023q0 104 65 172q67 70 164 70q98 0 166 -70q67 -68 67 -172t-67 -172q-67 -69 -166 -69q-98 0 -164 69q-65 68 -65 172z" />
<glyph unicode="&#xc0;" d="M1761 0l-258 881h-917l-250 -881h-352l864 3027h397l901 -3027h-385zM1036 2707l-377 -1544h766zM590 3879l311 168l385 -635l-229 -111z" />
<glyph unicode="&#xc1;" d="M1761 0l-258 881h-917l-250 -881h-352l864 3027h397l901 -3027h-385zM1036 2707l-377 -1544h766zM807 3391l377 660l278 -160l-450 -602z" />
<glyph unicode="&#xc2;" d="M1761 0l-258 881h-917l-250 -881h-352l864 3027h397l901 -3027h-385zM1036 2707l-377 -1544h766zM1040 3940l574 -495l-164 -164l-406 328l-397 -328l-168 143z" />
<glyph unicode="&#xc3;" d="M1761 0l-258 881h-917l-250 -881h-352l864 3027h397l901 -3027h-385zM1036 2707l-377 -1544h766zM1520 3674l135 -160q-183 -204 -389 -204q-107 0 -228 61t-190 61q-99 0 -254 -122l-131 168q212 200 397 200q104 0 223 -59q121 -60 195 -60q97 0 242 115z" />
<glyph unicode="&#xc4;" d="M1761 0l-258 881h-917l-250 -881h-352l864 3027h397l901 -3027h-385zM1036 2707l-377 -1544h766zM1675 3535q0 -99 -67 -160t-170 -61q-86 0 -152 63q-65 62 -65 158q0 98 63 164q62 65 154 65q104 0 170 -65q67 -66 67 -164zM848 3535q0 -98 -64 -160q-62 -61 -153 -61 q-104 0 -166 61q-64 62 -64 160t66 164q65 65 164 65q94 0 155 -65q62 -67 62 -164z" />
<glyph unicode="&#xc5;" d="M1462 3285q0 -249 -180 -389l864 -2896h-385l-258 881h-917l-250 -881h-352l823 2888q-180 128 -180 397q0 198 118 332q119 135 295 135q184 0 303 -137t119 -330zM1036 2707l-377 -1544h766zM1237 3285q0 109 -51 186q-51 76 -146 76q-94 0 -143 -76t-49 -186 q0 -246 172 -258h20q95 0 146 74q51 73 51 184z" />
<glyph unicode="&#xc6;" horiz-adv-x="2969" d="M2867 0h-1093l-140 946h-938l-401 -946h-414l1409 3027h1450v-291h-1052l159 -995h852v-287h-815l189 -1163h794v-291zM1602 1221l-213 1466l-562 -1466h775z" />
<glyph unicode="&#xc7;" horiz-adv-x="1896" d="M1827 365l41 -299q-240 -103 -545 -115l-33 -234q381 -78 381 -393q0 -201 -141 -291t-350 -90q-137 0 -283 41l49 189q117 -37 213 -37q262 0 262 205q0 106 -86 157q-87 52 -266 64l45 401q-942 107 -942 1528q0 1589 1135 1589q285 0 557 -98l-62 -295q-52 28 -200 63 q-149 35 -291 35q-770 0 -770 -1253q0 -1286 749 -1286q270 0 537 119z" />
<glyph unicode="&#xc8;" horiz-adv-x="2039" d="M1917 0h-1540v3027h1466v-291h-1118v-1016h1008v-286h-1008v-1143h1192v-291zM655 3879l312 168l385 -635l-230 -111z" />
<glyph unicode="&#xc9;" horiz-adv-x="2039" d="M1917 0h-1540v3027h1466v-291h-1118v-1016h1008v-286h-1008v-1143h1192v-291zM877 3391l376 660l279 -160l-451 -602z" />
<glyph unicode="&#xca;" horiz-adv-x="2039" d="M1917 0h-1540v3027h1466v-291h-1118v-1016h1008v-286h-1008v-1143h1192v-291zM1110 3940l573 -495l-163 -164l-406 328l-397 -328l-168 143z" />
<glyph unicode="&#xcb;" horiz-adv-x="2039" d="M1917 0h-1540v3027h1466v-291h-1118v-1016h1008v-286h-1008v-1143h1192v-291zM913 3535q0 -99 -63 -160q-62 -61 -154 -61q-104 0 -166 61q-63 61 -63 160t65 164t164 65q95 0 156 -65t61 -164zM1741 3535q0 -98 -68 -160q-67 -61 -170 -61q-85 0 -151 63t-66 158 q0 97 64 164q62 65 153 65q104 0 170 -65q68 -66 68 -164z" />
<glyph unicode="&#xcc;" horiz-adv-x="1105" d="M725 0h-344v3027h344v-3027zM102 3879l312 168l385 -635l-230 -111z" />
<glyph unicode="&#xcd;" horiz-adv-x="1105" d="M725 0h-344v3027h344v-3027zM324 3391l376 660l279 -160l-451 -602z" />
<glyph unicode="&#xce;" horiz-adv-x="1105" d="M725 0h-344v3027h344v-3027zM557 3940l573 -495l-163 -164l-406 328l-397 -328l-168 143z" />
<glyph unicode="&#xcf;" horiz-adv-x="1105" d="M725 0h-344v3027h344v-3027zM360 3535q0 -99 -63 -160q-62 -61 -154 -61q-104 0 -166 61q-63 61 -63 160q0 98 66 164q65 65 163 65q95 0 156 -65t61 -164zM1188 3535q0 -98 -68 -160q-67 -61 -170 -61q-85 0 -151 63t-66 158q0 97 64 164q62 65 153 65q104 0 170 -65 q68 -66 68 -164z" />
<glyph unicode="&#xd0;" horiz-adv-x="2490" d="M2306 1536q0 -262 -33 -477q-34 -220 -116 -418q-84 -202 -220 -340q-135 -137 -354 -219q-218 -82 -510 -82h-696v3027h713q1216 0 1216 -1491zM1942 1520q0 274 -39 479q-39 203 -134 379t-276 266q-184 92 -444 92h-324v-2445h369q211 0 362 65q156 67 246 172 q91 106 147 271q56 166 74 331q19 177 19 390zM1688 3408h-1119v246h1119v-246z" />
<glyph unicode="&#xd1;" horiz-adv-x="2727" d="M2351 0h-258l-1380 2318v-2318h-336v3027h270l1372 -2286v2286h332v-3027zM1864 3674l135 -160q-183 -204 -389 -204q-107 0 -228 61t-190 61q-99 0 -254 -122l-131 168q212 200 397 200q104 0 223 -59q121 -60 195 -60q97 0 242 115z" />
<glyph unicode="&#xd2;" horiz-adv-x="2555" d="M2376 1573q0 -1626 -1131 -1626q-1065 0 -1065 1507q0 321 56 598q55 274 180 514q125 241 352 377q229 137 539 137q299 0 514 -123q214 -123 331 -342q118 -221 170 -477q54 -265 54 -565zM2007 1556q0 1233 -721 1233q-741 0 -741 -1319q0 -1232 717 -1232 q745 0 745 1318zM844 3879l311 168l385 -635l-229 -111z" />
<glyph unicode="&#xd3;" horiz-adv-x="2555" d="M2376 1573q0 -1626 -1131 -1626q-1065 0 -1065 1507q0 321 56 598q55 274 180 514q125 241 352 377q229 137 539 137q299 0 514 -123q214 -123 331 -342q118 -221 170 -477q54 -265 54 -565zM2007 1556q0 1233 -721 1233q-741 0 -741 -1319q0 -1232 717 -1232 q745 0 745 1318zM1065 3391l377 660l278 -160l-450 -602z" />
<glyph unicode="&#xd4;" horiz-adv-x="2555" d="M2376 1573q0 -1626 -1131 -1626q-1065 0 -1065 1507q0 321 56 598q55 274 180 514q125 241 352 377q229 137 539 137q299 0 514 -123q214 -123 331 -342q118 -221 170 -477q54 -265 54 -565zM2007 1556q0 1233 -721 1233q-741 0 -741 -1319q0 -1232 717 -1232 q745 0 745 1318zM1298 3940l574 -495l-164 -164l-405 328l-398 -328l-168 143z" />
<glyph unicode="&#xd5;" horiz-adv-x="2555" d="M2376 1573q0 -1626 -1131 -1626q-1065 0 -1065 1507q0 321 56 598q55 274 180 514q125 241 352 377q229 137 539 137q299 0 514 -123q214 -123 331 -342q118 -221 170 -477q54 -265 54 -565zM2007 1556q0 1233 -721 1233q-741 0 -741 -1319q0 -1232 717 -1232 q745 0 745 1318zM1774 3674l135 -160q-183 -204 -389 -204q-107 0 -228 61t-190 61q-99 0 -254 -122l-131 168q212 200 397 200q104 0 223 -59q121 -60 195 -60q97 0 242 115z" />
<glyph unicode="&#xd6;" horiz-adv-x="2555" d="M2376 1573q0 -1626 -1131 -1626q-1065 0 -1065 1507q0 321 56 598q55 274 180 514q125 241 352 377q229 137 539 137q299 0 514 -123q214 -123 331 -342q118 -221 170 -477q54 -265 54 -565zM2007 1556q0 1233 -721 1233q-741 0 -741 -1319q0 -1232 717 -1232 q745 0 745 1318zM1102 3535q0 -98 -64 -160q-62 -61 -153 -61q-104 0 -166 61q-64 62 -64 160t66 164q65 65 164 65q94 0 155 -65q62 -67 62 -164zM1929 3535q0 -99 -67 -160t-170 -61q-86 0 -152 63q-65 62 -65 158q0 98 63 164q62 65 154 65q104 0 170 -65q67 -66 67 -164 z" />
<glyph unicode="&#xd7;" horiz-adv-x="1994" d="M1741 1851l-533 -647l537 -655l-213 -217l-533 655l-528 -651l-213 213l528 651l-536 660l209 221l540 -668l529 660z" />
<glyph unicode="&#xd8;" horiz-adv-x="2568" d="M2376 1573q0 -1626 -1131 -1626q-479 0 -741 303l-250 -324l-217 226l295 376q-152 354 -152 926q0 321 56 598q55 274 180 514q125 241 352 377q229 137 539 137q501 0 766 -352l299 377l208 -226l-348 -434q144 -357 144 -872zM545 1470q0 -360 57 -618l1249 1581 q-179 356 -565 356q-741 0 -741 -1319zM2007 1556q0 303 -49 558l-1233 -1577q180 -299 537 -299q745 0 745 1318z" />
<glyph unicode="&#xd9;" horiz-adv-x="2572" d="M2216 3027v-2089q0 -443 -229 -717t-721 -274q-488 0 -699 270q-211 269 -211 713v2097h353v-2023q0 -369 129 -558q128 -188 452 -188q323 0 451 199q127 197 127 555v2015h348zM848 3879l311 168l385 -635l-229 -111z" />
<glyph unicode="&#xda;" horiz-adv-x="2572" d="M2216 3027v-2089q0 -443 -229 -717t-721 -274q-488 0 -699 270q-211 269 -211 713v2097h353v-2023q0 -369 129 -558q128 -188 452 -188q323 0 451 199q127 197 127 555v2015h348zM1069 3391l377 660l278 -160l-450 -602z" />
<glyph unicode="&#xdb;" horiz-adv-x="2572" d="M2216 3027v-2089q0 -443 -229 -717t-721 -274q-488 0 -699 270q-211 269 -211 713v2097h353v-2023q0 -369 129 -558q128 -188 452 -188q323 0 451 199q127 197 127 555v2015h348zM1303 3940l573 -495l-164 -164l-405 328l-398 -328l-168 143z" />
<glyph unicode="&#xdc;" horiz-adv-x="2572" d="M2216 3027v-2089q0 -443 -229 -717t-721 -274q-488 0 -699 270q-211 269 -211 713v2097h353v-2023q0 -369 129 -558q128 -188 452 -188q323 0 451 199q127 197 127 555v2015h348zM1106 3535q0 -98 -64 -160q-62 -61 -153 -61q-104 0 -166 61q-64 62 -64 160t66 164 q65 65 164 65q94 0 155 -65q62 -67 62 -164zM1933 3535q0 -99 -67 -160t-170 -61q-86 0 -152 63q-65 62 -65 158q0 98 63 164q62 65 154 65q104 0 170 -65q67 -66 67 -164z" />
<glyph unicode="&#xdd;" horiz-adv-x="1949" d="M2011 3027l-860 -2036v-991h-348v983l-869 2044h398l651 -1675l664 1675h364zM758 3391l377 660l278 -160l-450 -602z" />
<glyph unicode="&#xde;" horiz-adv-x="2117" d="M422 3027h348v-561h262q228 0 408 -68q178 -67 280 -168q105 -103 166 -233q64 -135 86 -248q23 -117 23 -229q0 -130 -25 -263q-23 -121 -88 -253q-63 -128 -164 -220t-264 -149q-164 -57 -373 -57q-187 0 -311 32v-610h-348v3027zM1618 1520q0 73 -8 147q-7 67 -47 168 q-38 97 -103 168q-64 71 -186 121q-123 51 -287 51h-217v-1274q161 -37 299 -37q549 0 549 656z" />
<glyph unicode="&#xdf;" horiz-adv-x="2019" d="M1331 225q127 0 195 80q67 79 67 223q0 139 -80 275q-79 134 -178 233t-178 254q-80 157 -80 332q0 158 62 317q63 160 133 263q71 104 133 241q61 135 61 260q0 160 -84 271q-83 110 -256 110q-222 0 -335 -188q-115 -191 -115 -488v-2408h-348v2396q0 439 207 703 t591 264q327 0 512 -176t185 -447q0 -167 -62 -327q-63 -163 -133 -265q-72 -105 -133 -239t-61 -258q0 -114 53 -217t127 -189l149 -180q77 -95 129 -231q54 -140 54 -302q0 -172 -60 -296q-61 -127 -155 -187q-97 -62 -193 -86t-195 -24q-229 0 -491 151l94 295 q248 -160 385 -160z" />
<glyph unicode="&#xe0;" horiz-adv-x="1867" d="M1577 0h-291l-37 213q-10 -6 -71 -51q-65 -48 -86 -62l-18.5 -11l-31.5 -18.5l-36 -21.5q-54 -32 -105 -51q-32 -12 -104 -29q-59 -14 -125 -14q-238 0 -365 168q-127 167 -127 422q0 232 142 379q140 144 354 200q217 57 516 64v418q0 213 -74 299t-225 86 q-218 0 -533 -156l-77 266q421 160 659 160q321 0 457 -166q137 -167 137 -481v-991q0 -187 41 -623zM1196 418v553q-123 -5 -192 -10q-76 -6 -183 -31q-99 -24 -164 -64q-63 -39 -108 -112q-45 -74 -45 -172q0 -168 78 -269q78 -100 213 -100q132 0 401 205zM471 3080 l311 168l385 -639l-229 -110z" />
<glyph unicode="&#xe1;" horiz-adv-x="1867" d="M1577 0h-291l-37 213q-10 -6 -71 -51q-65 -48 -86 -62l-18.5 -11l-31.5 -18.5l-36 -21.5q-54 -32 -105 -51q-32 -12 -104 -29q-59 -14 -125 -14q-238 0 -365 168q-127 167 -127 422q0 232 142 379q140 144 354 200q217 57 516 64v418q0 213 -74 299t-225 86 q-218 0 -533 -156l-77 266q421 160 659 160q321 0 457 -166q137 -167 137 -481v-991q0 -187 41 -623zM1196 418v553q-123 -5 -192 -10q-76 -6 -183 -31q-99 -24 -164 -64q-63 -39 -108 -112q-45 -74 -45 -172q0 -168 78 -269q78 -100 213 -100q132 0 401 205zM766 2589 l381 663l274 -155l-450 -611z" />
<glyph unicode="&#xe2;" horiz-adv-x="1867" d="M1577 0h-291l-37 213q-10 -6 -71 -51q-65 -48 -86 -62l-18.5 -11l-31.5 -18.5l-36 -21.5q-54 -32 -105 -51q-32 -12 -104 -29q-59 -14 -125 -14q-238 0 -365 168q-127 167 -127 422q0 232 142 379q140 144 354 200q217 57 516 64v418q0 213 -74 299t-225 86 q-218 0 -533 -156l-77 266q421 160 659 160q321 0 457 -166q137 -167 137 -481v-991q0 -187 41 -623zM1196 418v553q-123 -5 -192 -10q-76 -6 -183 -31q-99 -24 -164 -64q-63 -39 -108 -112q-45 -74 -45 -172q0 -168 78 -269q78 -100 213 -100q132 0 401 205zM958 3142 l570 -496l-164 -164l-406 328l-397 -328l-168 139z" />
<glyph unicode="&#xe3;" horiz-adv-x="1867" d="M1577 0h-291l-37 213q-10 -6 -71 -51q-65 -48 -86 -62l-18.5 -11l-31.5 -18.5l-36 -21.5q-54 -32 -105 -51q-32 -12 -104 -29q-59 -14 -125 -14q-238 0 -365 168q-127 167 -127 422q0 232 142 379q140 144 354 200q217 57 516 64v418q0 213 -74 299t-225 86 q-218 0 -533 -156l-77 266q421 160 659 160q321 0 457 -166q137 -167 137 -481v-991q0 -187 41 -623zM1196 418v553q-123 -5 -192 -10q-76 -6 -183 -31q-99 -24 -164 -64q-63 -39 -108 -112q-45 -74 -45 -172q0 -168 78 -269q78 -100 213 -100q132 0 401 205zM1393 2941 l139 -156q-180 -221 -389 -221q-118 0 -234 64q-114 63 -180 63q-15 0 -39 -2q-18 -1 -39 -12t-33 -15q-11 -4 -38 -22q-24 -16 -33 -25q-6 -6 -39 -30q-35 -25 -41 -29l-127 168q201 213 393 213q110 0 228 -62q116 -61 182 -61q107 0 250 127z" />
<glyph unicode="&#xe4;" horiz-adv-x="1867" d="M1577 0h-291l-37 213q-10 -6 -71 -51q-65 -48 -86 -62l-18.5 -11l-31.5 -18.5l-36 -21.5q-54 -32 -105 -51q-32 -12 -104 -29q-59 -14 -125 -14q-238 0 -365 168q-127 167 -127 422q0 232 142 379q140 144 354 200q217 57 516 64v418q0 213 -74 299t-225 86 q-218 0 -533 -156l-77 266q421 160 659 160q321 0 457 -166q137 -167 137 -481v-991q0 -187 41 -623zM1196 418v553q-123 -5 -192 -10q-76 -6 -183 -31q-99 -24 -164 -64q-63 -39 -108 -112q-45 -74 -45 -172q0 -168 78 -269q78 -100 213 -100q132 0 401 205zM758 2867 q0 -93 -60 -155t-145 -62q-99 0 -160 60t-61 157q0 103 61 164t160 61q85 0 145 -63t60 -162zM1556 2867q0 -97 -61 -157t-160 -60q-85 0 -145 60t-60 157q0 98 58 162q57 63 147 63q95 0 158 -63t63 -162z" />
<glyph unicode="&#xe5;" horiz-adv-x="1867" d="M1577 0h-291l-37 213q-10 -6 -71 -51q-65 -48 -86 -62l-18.5 -11l-31.5 -18.5l-36 -21.5q-54 -32 -105 -51q-32 -12 -104 -29q-59 -14 -125 -14q-238 0 -365 168q-127 167 -127 422q0 232 142 379q140 144 354 200q217 57 516 64v418q0 213 -74 299t-225 86 q-218 0 -533 -156l-77 266q421 160 659 160q321 0 457 -166q137 -167 137 -481v-991q0 -187 41 -623zM1196 418v553q-123 -5 -192 -10q-76 -6 -183 -31q-99 -24 -164 -64q-63 -39 -108 -112q-45 -74 -45 -172q0 -168 78 -269q78 -100 213 -100q132 0 401 205zM1372 2896 q0 -197 -119 -334t-303 -137q-180 0 -297 137q-116 135 -116 334q0 198 118 334q119 137 295 137q184 0 303 -137t119 -334zM1147 2896q0 109 -53 186q-52 76 -144 76q-90 0 -141 -76t-51 -186t51 -184t141 -74q92 0 144 78q53 79 53 180z" />
<glyph unicode="&#xe6;" horiz-adv-x="2740" d="M1909 -57q-349 0 -541 299q-365 -287 -663 -287q-247 0 -392 172t-145 446q0 361 266 541q267 181 729 193v254q0 430 -274 430q-209 0 -533 -156l-77 266q421 160 651 160q340 0 442 -377q237 385 529 385q331 0 493 -270t162 -705q0 -98 -12 -192h-1082 q24 -885 496 -885q216 0 471 193l86 -275q-279 -192 -606 -192zM807 213q198 0 467 217q-103 265 -115 660q-314 -7 -493 -125q-179 -117 -179 -351q0 -171 91 -286t229 -115zM1860 2011q-181 0 -287 -196q-106 -195 -127 -484h786v41q0 639 -372 639z" />
<glyph unicode="&#xe7;" horiz-adv-x="1654" d="M1479 352l73 -270q-165 -91 -450 -119l-33 -246q381 -78 381 -393q0 -201 -141 -291t-351 -90q-136 0 -282 41l49 189q117 -37 213 -37q262 0 262 205q0 106 -86 157q-87 52 -266 64l45 405q-680 83 -680 1127q0 577 217 866t623 289q290 0 491 -99l-74 -290 q-187 110 -401 110q-496 0 -496 -835q0 -428 132 -662q131 -231 368 -231q190 0 406 110z" />
<glyph unicode="&#xe8;" horiz-adv-x="1896" d="M1704 1102h-1167q5 -461 125 -668q122 -209 403 -209q219 0 528 160l82 -266q-335 -172 -639 -172q-434 0 -624 297q-191 298 -191 841q0 1176 799 1176q700 0 700 -930q0 -137 -16 -229zM1004 2011q-413 0 -463 -680h852v33q0 314 -82 477q-86 170 -307 170zM537 3080 l311 168l385 -639l-229 -110z" />
<glyph unicode="&#xe9;" horiz-adv-x="1896" d="M1704 1102h-1167q5 -461 125 -668q122 -209 403 -209q219 0 528 160l82 -266q-335 -172 -639 -172q-434 0 -624 297q-191 298 -191 841q0 1176 799 1176q700 0 700 -930q0 -137 -16 -229zM1004 2011q-413 0 -463 -680h852v33q0 314 -82 477q-86 170 -307 170zM836 2589 l381 663l274 -155l-451 -611z" />
<glyph unicode="&#xea;" horiz-adv-x="1896" d="M1704 1102h-1167q5 -461 125 -668q122 -209 403 -209q219 0 528 160l82 -266q-335 -172 -639 -172q-434 0 -624 297q-191 298 -191 841q0 1176 799 1176q700 0 700 -930q0 -137 -16 -229zM1004 2011q-413 0 -463 -680h852v33q0 314 -82 477q-86 170 -307 170zM1024 3142 l569 -496l-163 -164l-406 328l-397 -328l-168 139z" />
<glyph unicode="&#xeb;" horiz-adv-x="1896" d="M1704 1102h-1167q5 -461 125 -668q122 -209 403 -209q219 0 528 160l82 -266q-335 -172 -639 -172q-434 0 -624 297q-191 298 -191 841q0 1176 799 1176q700 0 700 -930q0 -137 -16 -229zM1004 2011q-413 0 -463 -680h852v33q0 314 -82 477q-86 170 -307 170zM823 2867 q0 -95 -59 -155q-60 -62 -146 -62q-98 0 -159 60q-62 60 -62 157q0 102 62 164q61 61 159 61q86 0 146 -63q59 -62 59 -162zM1622 2867q0 -97 -61 -157t-160 -60q-86 0 -146 60q-59 59 -59 157q0 99 57 162t148 63q95 0 158 -63t63 -162z" />
<glyph unicode="&#xec;" horiz-adv-x="991" d="M672 0h-353v2208h353v-2208zM12 3080l312 168l385 -639l-230 -110z" />
<glyph unicode="&#xed;" horiz-adv-x="991" d="M672 0h-353v2208h353v-2208zM311 2589l381 663l275 -155l-451 -611z" />
<glyph unicode="&#xee;" horiz-adv-x="991" d="M672 0h-353v2208h353v-2208zM500 3142l569 -496l-164 -164l-405 328l-398 -328l-168 139z" />
<glyph unicode="&#xef;" horiz-adv-x="991" d="M672 0h-353v2208h353v-2208zM299 2867q0 -95 -59 -155q-60 -62 -146 -62q-98 0 -160 60q-61 60 -61 157q0 103 61 164t160 61q86 0 146 -63q59 -62 59 -162zM1098 2867q0 -97 -62 -157t-159 -60q-86 0 -146 60q-59 59 -59 157q0 99 57 162t148 63q94 0 157 -63 q64 -64 64 -162z" />
<glyph unicode="&#xf0;" horiz-adv-x="2113" d="M881 2118l-144 192l381 336q-214 263 -528 410l135 270q384 -163 639 -463l356 315l135 -184l-348 -315q373 -567 373 -1417q0 -1316 -831 -1315q-376 0 -600 254t-224 680q0 252 74 454q73 201 201 318q128 118 288 174q131 46 269 46q35 0 71 -3q181 -15 351 -92 q-68 386 -230 671zM598 926q0 -301 121 -492q121 -192 342 -192q459 0 459 983q0 136 -13 295q-202 84 -381 84q-30 0 -59 -2q-203 -16 -336 -195q-133 -178 -133 -481z" />
<glyph unicode="&#xf1;" horiz-adv-x="2179" d="M1847 0h-348v1556q0 222 -63 310t-203 88q-238 0 -553 -291v-1663h-348v2208h311l25 -254q191 152 356 231q158 76 344 76q234 0 356 -143q123 -144 123 -496v-1622zM1565 2941l139 -156q-180 -221 -389 -221q-118 0 -234 64q-114 63 -180 63q-15 0 -39 -2 q-18 -1 -39 -12q-24 -12 -32 -15q-14 -5 -39 -22q-24 -16 -33 -25q-6 -6 -39 -30q-35 -25 -41 -29l-127 168q201 213 393 213q110 0 228 -62q116 -61 182 -61q107 0 250 127z" />
<glyph unicode="&#xf2;" horiz-adv-x="2101" d="M213 1081q0 536 209 858t647 322q807 0 807 -1126q0 -549 -207 -869q-207 -319 -637 -319q-417 0 -618 307q-201 308 -201 827zM569 1098q0 -869 471 -869q480 0 480 897q0 856 -467 856q-484 0 -484 -884zM582 3080l311 168l385 -639l-229 -110z" />
<glyph unicode="&#xf3;" horiz-adv-x="2101" d="M213 1081q0 536 209 858t647 322q807 0 807 -1126q0 -549 -207 -869q-207 -319 -637 -319q-417 0 -618 307q-201 308 -201 827zM569 1098q0 -869 471 -869q480 0 480 897q0 856 -467 856q-484 0 -484 -884zM881 2589l381 663l274 -155l-451 -611z" />
<glyph unicode="&#xf4;" horiz-adv-x="2101" d="M213 1081q0 536 209 858t647 322q807 0 807 -1126q0 -549 -207 -869q-207 -319 -637 -319q-417 0 -618 307q-201 308 -201 827zM569 1098q0 -869 471 -869q480 0 480 897q0 856 -467 856q-484 0 -484 -884zM1069 3142l569 -496l-163 -164l-406 328l-397 -328l-168 139z " />
<glyph unicode="&#xf5;" horiz-adv-x="2101" d="M213 1081q0 536 209 858t647 322q807 0 807 -1126q0 -549 -207 -869q-207 -319 -637 -319q-417 0 -618 307q-201 308 -201 827zM569 1098q0 -869 471 -869q480 0 480 897q0 856 -467 856q-484 0 -484 -884zM1503 2941l139 -156q-176 -221 -389 -221q-117 0 -233 64 q-114 63 -180 63q-15 0 -39 -2q-18 -1 -39 -12t-33 -15q-14 -5 -39 -22q-24 -16 -33 -25q-6 -6 -39 -30q-39 -29 -40 -29l-127 168q201 213 393 213q109 0 227 -62q116 -61 182 -61q107 0 250 127z" />
<glyph unicode="&#xf6;" horiz-adv-x="2101" d="M213 1081q0 536 209 858t647 322q807 0 807 -1126q0 -549 -207 -869q-207 -319 -637 -319q-417 0 -618 307q-201 308 -201 827zM569 1098q0 -869 471 -869q480 0 480 897q0 856 -467 856q-484 0 -484 -884zM868 2867q0 -95 -59 -155q-60 -62 -145 -62q-98 0 -160 60 t-62 157q0 102 62 164q61 61 160 61q85 0 145 -63q59 -62 59 -162zM1667 2867q0 -97 -61 -157q-62 -60 -160 -60q-86 0 -146 60q-59 59 -59 157q0 99 57 162t148 63q95 0 158 -63t63 -162z" />
<glyph unicode="&#xf7;" horiz-adv-x="1994" d="M1810 1376l-1503 -671l-102 278l1507 672zM1573 184q0 -102 -68 -172q-67 -69 -162 -69q-101 0 -169 69q-68 70 -68 172t70 172t167 70q94 0 162 -70t68 -172zM1118 2109q0 -104 -67 -172q-67 -69 -162 -69q-103 0 -170 69q-68 70 -68 172t70 172t168 70q94 0 162 -70 q67 -68 67 -172z" />
<glyph unicode="&#xf8;" horiz-adv-x="2101" d="M213 1081q0 536 209 858t647 322q368 0 569 -246l263 262l229 -241l-328 -332q74 -236 74 -569q0 -549 -207 -869q-207 -319 -637 -319q-405 0 -614 299l-258 -254l-221 241l331 332q-57 213 -57 516zM1520 1126q0 160 -21 324l-856 -909q114 -312 397 -312 q480 0 480 897zM569 1098q0 -134 13 -267l839 902q-113 249 -368 249q-484 0 -484 -884z" />
<glyph unicode="&#xf9;" horiz-adv-x="2166" d="M324 2208h348v-1557q0 -221 63 -307t203 -86q245 0 553 287v1663h348v-2208h-311l-25 250q-203 -158 -358 -230q-156 -73 -338 -73q-234 0 -358 143q-125 145 -125 500v1618zM594 3080l311 168l385 -639l-229 -110z" />
<glyph unicode="&#xfa;" horiz-adv-x="2166" d="M324 2208h348v-1557q0 -221 63 -307t203 -86q245 0 553 287v1663h348v-2208h-311l-25 250q-203 -158 -358 -230q-156 -73 -338 -73q-234 0 -358 143q-125 145 -125 500v1618zM893 2589l381 663l274 -155l-450 -611z" />
<glyph unicode="&#xfb;" horiz-adv-x="2166" d="M324 2208h348v-1557q0 -221 63 -307t203 -86q245 0 553 287v1663h348v-2208h-311l-25 250q-203 -158 -358 -230q-156 -73 -338 -73q-234 0 -358 143q-125 145 -125 500v1618zM1081 3142l570 -496l-164 -164l-406 328l-397 -328l-168 139z" />
<glyph unicode="&#xfc;" horiz-adv-x="2166" d="M324 2208h348v-1557q0 -221 63 -307t203 -86q245 0 553 287v1663h348v-2208h-311l-25 250q-203 -158 -358 -230q-156 -73 -338 -73q-234 0 -358 143q-125 145 -125 500v1618zM881 2867q0 -93 -60 -155t-145 -62q-98 0 -160 60q-61 60 -61 157q0 103 61 164t160 61 q85 0 145 -63t60 -162zM1679 2867q0 -97 -61 -157q-62 -60 -160 -60q-85 0 -145 60t-60 157q0 98 58 162q57 63 147 63q95 0 158 -63t63 -162z" />
<glyph unicode="&#xfd;" horiz-adv-x="1781" d="M1769 2208l-704 -2396q-119 -408 -309 -605q-190 -198 -527 -333l-127 282q253 114 400 273q146 158 231 436l66 213l-131 8l-639 2122h381l503 -1880l496 1880h360zM737 2589l381 663l275 -155l-451 -611z" />
<glyph unicode="&#xfe;" horiz-adv-x="2039" d="M1851 1126q0 -280 -82 -538q-84 -264 -282 -453q-201 -192 -479 -192q-142 0 -340 86v-1143h-353v4440h353v-1196q205 139 376 139q394 0 601 -330q206 -328 206 -813zM1479 1102q0 376 -117 627q-116 249 -367 249q-171 0 -327 -159v-1471q160 -115 336 -115 q129 0 229 89q98 87 149 229q52 143 74 278q23 140 23 273z" />
<glyph unicode="&#xff;" horiz-adv-x="1781" d="M1769 2208l-704 -2396q-119 -408 -309 -605q-190 -198 -527 -333l-127 282q253 114 400 273q146 158 231 436l66 213l-131 8l-639 2122h381l503 -1880l496 1880h360zM725 2867q0 -95 -59 -155q-60 -62 -146 -62q-98 0 -160 60q-61 60 -61 157q0 103 61 164t160 61 q86 0 146 -63q59 -62 59 -162zM1524 2867q0 -97 -62 -157t-159 -60q-86 0 -146 60q-59 59 -59 157q0 99 57 162t148 63q94 0 157 -63q64 -64 64 -162z" />
<glyph unicode="&#x152;" horiz-adv-x="3399" d="M3281 0h-1311q-88 0 -287 -20q-209 -21 -311 -21q-240 0 -438 80q-197 80 -322 215q-123 133 -213 295q-88 159 -135 344q-47 188 -65 332q-19 155 -19 286q0 189 27 379q27 194 106 410q80 220 207 383t348 274q220 111 504 111q82 0 268 -21q177 -20 297 -20h1266v-291 h-1130v-983h979v-287h-979v-1175h1208v-291zM1729 291v2441q-149 41 -357 41q-196 0 -350 -92q-153 -92 -240 -230q-85 -136 -141 -317q-56 -183 -74 -330q-18 -150 -18 -293q0 -152 14 -284q15 -143 66 -328q51 -186 135 -321q85 -136 242 -232q158 -96 366 -96 q108 0 357 41z" />
<glyph unicode="&#x153;" horiz-adv-x="2908" d="M2748 1286q0 -79 -20 -196h-1053q45 -873 463 -873q215 0 479 193l95 -271q-286 -196 -611 -196q-410 0 -573 503q-184 -503 -582 -503q-229 0 -395 118q-165 117 -244 312q-76 188 -110 372q-33 180 -33 369q0 131 18 266q17 126 72 301q52 167 135 291q84 127 232 211 q151 86 337 86q402 0 570 -487q184 487 549 487q339 0 503 -276q163 -276 168 -707zM528 1130q0 -140 15 -270q16 -136 55 -285q40 -151 133 -247q92 -95 223 -95q394 0 394 877q0 868 -398 868q-132 0 -221 -88q-91 -90 -131 -233t-55 -268q-15 -123 -15 -259zM2060 2011 q-176 0 -268 -192q-92 -193 -113 -500h742v27q0 665 -361 665z" />
<glyph unicode="&#x178;" horiz-adv-x="1949" d="M2011 3027l-860 -2036v-991h-348v983l-869 2044h398l651 -1675l664 1675h364zM795 3535q0 -98 -64 -160q-62 -61 -153 -61q-104 0 -166 61q-64 62 -64 160t66 164q65 65 164 65q94 0 155 -65q62 -67 62 -164zM1622 3535q0 -98 -68 -160q-67 -61 -170 -61q-85 0 -151 63 t-66 158q0 97 64 164q62 65 153 65q104 0 170 -65q68 -66 68 -164z" />
<glyph unicode="&#x2c6;" horiz-adv-x="974" d="M492 3142l569 -496l-164 -164l-405 328l-398 -328l-168 139z" />
<glyph unicode="&#x2dc;" horiz-adv-x="1294" d="M1061 2941l139 -156q-176 -221 -389 -221q-117 0 -233 64q-114 63 -181 63q-15 0 -39 -2q-18 -1 -39 -12q-24 -12 -32 -15q-14 -5 -39 -22q-24 -16 -33 -25q-6 -6 -39 -30q-35 -25 -41 -29l-127 168q201 213 393 213q110 0 228 -62q116 -61 182 -61q107 0 250 127z" />
<glyph unicode="&#x2000;" horiz-adv-x="2023" />
<glyph unicode="&#x2001;" horiz-adv-x="4050" />
<glyph unicode="&#x2002;" horiz-adv-x="2023" />
<glyph unicode="&#x2003;" horiz-adv-x="4050" />
<glyph unicode="&#x2004;" horiz-adv-x="1347" />
<glyph unicode="&#x2005;" horiz-adv-x="1011" />
<glyph unicode="&#x2006;" horiz-adv-x="671" />
<glyph unicode="&#x2007;" horiz-adv-x="671" />
<glyph unicode="&#x2008;" horiz-adv-x="503" />
<glyph unicode="&#x2009;" horiz-adv-x="806" />
<glyph unicode="&#x200a;" horiz-adv-x="221" />
<glyph unicode="&#x2010;" horiz-adv-x="1511" d="M1290 1192h-1081v291h1081v-291z" />
<glyph unicode="&#x2011;" horiz-adv-x="1511" d="M1290 1192h-1081v291h1081v-291z" />
<glyph unicode="&#x2013;" horiz-adv-x="2289" d="M2068 1192h-1859v291h1859v-291z" />
<glyph unicode="&#x2014;" horiz-adv-x="3461" d="M3240 1192h-3031v291h3031v-291z" />
<glyph unicode="&#x2018;" horiz-adv-x="716" d="M578 3510l213 -180q-201 -237 -201 -446q0 -77 53 -162t53 -166q0 -82 -55 -137q-56 -56 -145 -56q-123 0 -195 111t-72 287q0 367 349 749z" />
<glyph unicode="&#x2019;" horiz-adv-x="716" d="M262 2269l-213 180q201 237 201 447q0 77 -53 162q-54 86 -54 166q0 81 56 137q55 55 145 55q123 0 195 -111q71 -109 71 -286q0 -369 -348 -750z" />
<glyph unicode="&#x201a;" horiz-adv-x="856" d="M344 -672l-213 180q201 237 201 447q0 77 -53 162q-54 86 -54 166q0 81 56 137q55 55 145 55q124 0 195 -110q71 -109 71 -287q0 -369 -348 -750z" />
<glyph unicode="&#x201c;" horiz-adv-x="1425" d="M578 3510l213 -180q-201 -237 -201 -446q0 -77 53 -162t53 -166q0 -82 -55 -137q-56 -56 -145 -56q-123 0 -195 111t-72 287q0 367 349 749zM1356 3510l213 -180q-201 -237 -201 -446q0 -77 53 -162q54 -86 54 -166q0 -81 -56 -137t-145 -56q-123 0 -195 111 q-71 109 -71 287q0 368 348 749z" />
<glyph unicode="&#x201d;" horiz-adv-x="1425" d="M262 2269l-213 180q201 237 201 447q0 77 -53 162q-54 86 -54 166q0 81 56 137q55 55 145 55q123 0 195 -111q71 -109 71 -286q0 -369 -348 -750zM1044 2269l-213 180q201 237 201 447q0 77 -53 162t-53 166q0 82 55 137t145 55q123 0 195 -111t72 -286q0 -368 -349 -750 z" />
<glyph unicode="&#x201e;" horiz-adv-x="1564" d="M344 -668l-213 181q201 237 201 446q0 77 -53 162q-54 86 -54 166q0 81 56 137q55 55 145 55q124 0 195 -110q71 -109 71 -287q0 -369 -348 -750zM1126 -668l-213 181q201 237 201 446q0 77 -53 162t-53 166q0 82 55 137t145 55q124 0 195 -110q72 -111 72 -287 q0 -368 -349 -750z" />
<glyph unicode="&#x2022;" horiz-adv-x="1277" d="M66 1405q0 254 163 432t398 178q237 0 405 -178q168 -179 168 -432q0 -249 -168 -428q-168 -178 -405 -178q-234 0 -398 176q-163 175 -163 430z" />
<glyph unicode="&#x2026;" horiz-adv-x="2433" d="M676 184q0 -102 -68 -172q-68 -69 -162 -69q-102 0 -170 69q-67 68 -67 172q0 102 70 172t167 70q94 0 162 -70t68 -172zM1544 184q0 -104 -67 -172q-67 -69 -162 -69q-103 0 -170 69q-68 70 -68 172t70 172t168 70q94 0 162 -70q67 -68 67 -172zM2413 184 q0 -102 -68 -172q-67 -69 -162 -69q-103 0 -170 69q-67 68 -67 172q0 103 69 172q70 70 168 70q94 0 162 -70t68 -172z" />
<glyph unicode="&#x202f;" horiz-adv-x="806" />
<glyph unicode="&#x2039;" horiz-adv-x="1306" d="M1085 1929l-471 -815l471 -803l-274 -123l-631 926l631 926z" />
<glyph unicode="&#x203a;" horiz-adv-x="1306" d="M700 1114l-479 807l271 119l634 -926l-639 -921l-266 110z" />
<glyph unicode="&#x205f;" horiz-adv-x="1011" />
<glyph unicode="&#x20ac;" horiz-adv-x="2072" d="M1610 1724h-807q-4 -59 -4 -204q0 -100 4 -140h807v-262h-791q49 -416 203 -651q153 -234 420 -234q197 0 438 127l90 -286q-309 -131 -557 -131q-434 0 -674 315t-297 860h-262v262h242v115q0 160 4 229h-246v271h275q78 495 319 790t672 295q245 0 500 -119l-95 -295 q-202 119 -389 119q-521 0 -635 -790h783v-271z" />
<glyph unicode="&#x2122;" horiz-adv-x="2834" d="M1139 3101h-439v-1463h-262v1463h-442v225h1143v-225zM2699 1642h-270l-53 1229l-389 -1229h-140l-397 1225l-66 -1225h-245l98 1684h258l426 -1282l430 1282h246z" />
</font>
</defs>
</svg>
